Горная охота / 1-8 эпизоды [2016-2018, горная охота, HDTVRip, RUS]

Страницы:  1

Ответить
Автор
Сообщение

kudzho1976

Стаж: 8 месяцев

Сообщений: 2


kudzho1976 · 23-Ноя-18 03:30 (8 месяцев назад, ред. 29-Ноя-18 18:52)

Горная охота
Страна: Россия, ООО "Дикое ТВ"
Тематика: Документальный, охота
Продолжительность: 8 x ~ 00:23:50
Год выпуска: 2016-2018
Язык: Русский
Описание: В поисках трофея охотник готов преодолеть не один крутой перевал. Горная охота требует особой выносливости, предельного внимания, выдержки и точности выстрела на дальней дистанции. Настоящая горная охота, подразумевает стрельбу на большом расстоянии от зверя, а это дело, посильное далеко не каждому. Долгие, изнуряющие тренировки по стрельбе, могут принести желанные результаты. В горах значительно труднее передвигаться, чем на равнинной местности, или в лесу. Это требует от охотника большой выдержки, физических сил. При подготовке к такому мероприятию, надо продумать все возможные варианты сбора, так как никаких мелочей упускать нельзя, ведь охота в горах – дело серьезное, которое не прощает оплошностей и ошибок.
Качество: HDTVRip
Формат: AVI
Видео кодек: XviD
Аудио кодек: MP3
Видео: XviD, ~ 1650 Кбит/с, 720x400, 1.7778 (16:9), 25,000 Кадр/cек
Аудио: MP3, 2 ch, 128 Кбит/с, 48,0 КГц
Релиз
Дата релиза: 23.11.2018
Релиз - Wolf999
При копировании файлов и оформления раздачи на других трекерах - ОБЯЗАТЕЛЬНО размещать баннер и указывать релиз-группу.
http://s020.radikal.ru/i713/1303/ea/2c61a5e7f955.gif
Содержание
01. Охота на косулю и волка в Беларуссии
02. Охота на оленя, лося, снежного барана в Магадане
03. Охота на моркура в Таджикистане
04. Охота на серну, муфлона во Франции и Испании
05. Охота на снежного барана на Чукотке
06. Охота на снежного барана в Якутии
07. Охота на козерога в Монголии
08. Охота на уреала в Пакистане
Инфо-файл
Общее
Полное имя : D:\Gornaya.okhota.(01-08.epizod).2016-2018.XviD.HDTVRip_Wolf 999\Gornaya.okhota.(04.epizod).okhota.na.sernu.muflona.Frantsiya.Ispaniya.2016-2018.XviD.HDTVRip_Wolf 999.avi
Формат : AVI
Формат/Информация : Audio Video Interleave
Размер файла : 382 Мбайт
Продолжительность : 29 м.
Общий поток : 1784 Кбит/сек
Программа кодирования : VirtualDubMod 1.5.10.3 | www.virtualdub-fr.org || (build 2550/release)
Библиотека кодирования : VirtualDubMod build 2550/release
Видео
Идентификатор : 0
Формат : MPEG-4 Visual
Профиль формата : Advanced [email protected]
Параметр BVOP формата : 2
Параметр QPel формата : Нет
Параметр GMC формата : Без точки перехода
Параметр матрицы формата : Default (MPEG)
Режим смешивания : Сжатый битовый поток
Идентификатор кодека : XVID
Идентификатор кодека/Подсказка : XviD
Продолжительность : 29 м.
Битрейт : 1646 Кбит/сек
Ширина : 720 пикселей
Высота : 400 пикселей
Соотношение сторон : 16:9
Частота кадров : 25,000 кадров/сек
Цветовое пространство : YUV
Субдискретизация насыщенности : 4:2:0
Битовая глубина : 8 бит
Тип развёртки : Прогрессивная
Метод сжатия : С потерями
Бит/(Пиксели*Кадры) : 0.229
Размер потока : 352 Мбайт (92%)
Библиотека кодирования : XviD 73
Аудио
Идентификатор : 1
Формат : MPEG Audio
Версия формата : Version 1
Профиль формата : Layer 3
Идентификатор кодека : 55
Идентификатор кодека/Подсказка : MP3
Продолжительность : 29 м.
Вид битрейта : Постоянный
Битрейт : 128 Кбит/сек
Каналы : 2 канала
Частота : 48,0 КГц
Метод сжатия : С потерями
Размер потока : 27,4 Мбайт (7%)
Выравнивание : Соединение по промежуткам
Продолжительность промежутка : 40 мс. (1,00 видеокадр)
Время предзагрузки промежутка : 504 мс.
Библиотека кодирования : LAME3.99r
Настройки программы : -m s -V 4 -q 2 -lowpass 17 -b 128
Общее
Полное имя : D:\Gornaya.okhota.(01-08.epizod).2016-2018.XviD.HDTVRip_Wolf 999\Gornaya.okhota.(02.epizod).okhota.na.olenya.losya.barana.Magadan.2016-2018.XviD.HDTVRip_Wolf 999.avi
Формат : AVI
Формат/Информация : Audio Video Interleave
Размер файла : 291 Мбайт
Продолжительность : 22 м.
Общий поток : 1782 Кбит/сек
Программа кодирования : VirtualDubMod 1.5.10.3 | www.virtualdub-fr.org || (build 2550/release)
Библиотека кодирования : VirtualDubMod build 2550/release
Видео
Идентификатор : 0
Формат : MPEG-4 Visual
Профиль формата : Advanced [email protected]
Параметр BVOP формата : 2
Параметр QPel формата : Нет
Параметр GMC формата : Без точки перехода
Параметр матрицы формата : Default (MPEG)
Режим смешивания : Сжатый битовый поток
Идентификатор кодека : XVID
Идентификатор кодека/Подсказка : XviD
Продолжительность : 22 м.
Битрейт : 1644 Кбит/сек
Ширина : 720 пикселей
Высота : 400 пикселей
Соотношение сторон : 16:9
Частота кадров : 25,000 кадров/сек
Цветовое пространство : YUV
Субдискретизация насыщенности : 4:2:0
Битовая глубина : 8 бит
Тип развёртки : Прогрессивная
Метод сжатия : С потерями
Бит/(Пиксели*Кадры) : 0.228
Размер потока : 269 Мбайт (92%)
Библиотека кодирования : XviD 73
Аудио
Идентификатор : 1
Формат : MPEG Audio
Версия формата : Version 1
Профиль формата : Layer 3
Идентификатор кодека : 55
Идентификатор кодека/Подсказка : MP3
Продолжительность : 22 м.
Вид битрейта : Постоянный
Битрейт : 128 Кбит/сек
Каналы : 2 канала
Частота : 48,0 КГц
Метод сжатия : С потерями
Размер потока : 20,9 Мбайт (7%)
Выравнивание : Соединение по промежуткам
Продолжительность промежутка : 40 мс. (1,00 видеокадр)
Время предзагрузки промежутка : 504 мс.
Библиотека кодирования : LAME3.99r
Настройки программы : -m s -V 4 -q 2 -lowpass 17 -b 128
Общее
Полное имя : D:\Gornaya.okhota.(01-08.epizod).2016-2018.XviD.HDTVRip_Wolf 999\Gornaya.okhota.(03.epizod).okhota.na.morkhura.Tadzhikistan.2016-2018.XviD.HDTVRip_Wolf 999.avi
Формат : AVI
Формат/Информация : Audio Video Interleave
Размер файла : 304 Мбайт
Продолжительность : 23 м.
Общий поток : 1784 Кбит/сек
Программа кодирования : VirtualDubMod 1.5.10.3 | www.virtualdub-fr.org || (build 2550/release)
Библиотека кодирования : VirtualDubMod build 2550/release
Видео
Идентификатор : 0
Формат : MPEG-4 Visual
Профиль формата : Advanced [email protected]
Параметр BVOP формата : 2
Параметр QPel формата : Нет
Параметр GMC формата : Без точки перехода
Параметр матрицы формата : Default (MPEG)
Режим смешивания : Сжатый битовый поток
Идентификатор кодека : XVID
Идентификатор кодека/Подсказка : XviD
Продолжительность : 23 м.
Битрейт : 1647 Кбит/сек
Ширина : 720 пикселей
Высота : 400 пикселей
Соотношение сторон : 16:9
Частота кадров : 25,000 кадров/сек
Цветовое пространство : YUV
Субдискретизация насыщенности : 4:2:0
Битовая глубина : 8 бит
Тип развёртки : Прогрессивная
Метод сжатия : С потерями
Бит/(Пиксели*Кадры) : 0.229
Размер потока : 281 Мбайт (92%)
Библиотека кодирования : XviD 73
Аудио
Идентификатор : 1
Формат : MPEG Audio
Версия формата : Version 1
Профиль формата : Layer 3
Идентификатор кодека : 55
Идентификатор кодека/Подсказка : MP3
Продолжительность : 23 м.
Вид битрейта : Постоянный
Битрейт : 128 Кбит/сек
Каналы : 2 канала
Частота : 48,0 КГц
Метод сжатия : С потерями
Размер потока : 21,8 Мбайт (7%)
Выравнивание : Соединение по промежуткам
Продолжительность промежутка : 40 мс. (1,00 видеокадр)
Время предзагрузки промежутка : 504 мс.
Библиотека кодирования : LAME3.99r
Настройки программы : -m s -V 4 -q 2 -lowpass 17 -b 128
Общее
Полное имя : D:\Gornaya.okhota.(01-08.epizod).2016-2018.XviD.HDTVRip_Wolf 999\Gornaya.okhota.(01.epizod).okhota.na.kosulyu.volka.Belarus.2016-2018.XviD.HDTVRip_Wolf 999.avi
Формат : AVI
Формат/Информация : Audio Video Interleave
Размер файла : 228 Мбайт
Продолжительность : 17 м.
Общий поток : 1787 Кбит/сек
Программа кодирования : VirtualDubMod 1.5.10.3 | www.virtualdub-fr.org || (build 2550/release)
Библиотека кодирования : VirtualDubMod build 2550/release
Видео
Идентификатор : 0
Формат : MPEG-4 Visual
Профиль формата : Advanced [email protected]
Параметр BVOP формата : 2
Параметр QPel формата : Нет
Параметр GMC формата : Без точки перехода
Параметр матрицы формата : Default (MPEG)
Режим смешивания : Сжатый битовый поток
Идентификатор кодека : XVID
Идентификатор кодека/Подсказка : XviD
Продолжительность : 17 м.
Битрейт : 1649 Кбит/сек
Ширина : 720 пикселей
Высота : 400 пикселей
Соотношение сторон : 16:9
Частота кадров : 25,000 кадров/сек
Цветовое пространство : YUV
Субдискретизация насыщенности : 4:2:0
Битовая глубина : 8 бит
Тип развёртки : Прогрессивная
Метод сжатия : С потерями
Бит/(Пиксели*Кадры) : 0.229
Размер потока : 211 Мбайт (92%)
Библиотека кодирования : XviD 73
Аудио
Идентификатор : 1
Формат : MPEG Audio
Версия формата : Version 1
Профиль формата : Layer 3
Идентификатор кодека : 55
Идентификатор кодека/Подсказка : MP3
Продолжительность : 17 м.
Вид битрейта : Постоянный
Битрейт : 128 Кбит/сек
Каналы : 2 канала
Частота : 48,0 КГц
Метод сжатия : С потерями
Размер потока : 16,4 Мбайт (7%)
Выравнивание : Соединение по промежуткам
Продолжительность промежутка : 40 мс. (1,00 видеокадр)
Время предзагрузки промежутка : 504 мс.
Библиотека кодирования : LAME3.99r
Настройки программы : -m s -V 4 -q 2 -lowpass 17 -b 128
Скриншоты
Download
Для скачивания .torrent файлов необходима регистрация
Сайт не распространяет и не хранит электронные версии произведений, а лишь предоставляет доступ к создаваемому пользователями каталогу ссылок на торрент-файлы, которые содержат только списки хеш-сумм
[Профиль]  [ЛС] 

Сме_ша_рик

Moderator

Стаж: 10 лет 7 месяцев

Сообщений: 2046

Сме_ша_рик · 23-Ноя-18 11:08 (спустя 7 часов, ред. 23-Ноя-18 11:08)

kudzho1976
Заголовок я Вам поправил.
Вам надо:
1) дополнить тех. данные. Тех. данные.
2) медиаинфо надо предоставить в виде текста под спойлер в оформлении раздачи.
[Профиль]  [ЛС] 

kudzho1976

Стаж: 8 месяцев

Сообщений: 2


kudzho1976 · 23-Ноя-18 11:39 (спустя 31 мин.)

Сме_ша_рик писал(а):
76370460kudzho1976
Заголовок я Вам поправил.
Вам надо:
1) дополнить тех. данные. Тех. данные.
2) медиаинфо надо предоставить в виде текста под спойлер в оформлении раздачи.
Можно и под спойлер.
[Профиль]  [ЛС] 

Сме_ша_рик

Moderator

Стаж: 10 лет 7 месяцев

Сообщений: 2046

Сме_ша_рик · 23-Ноя-18 15:31 (спустя 3 часа)

kudzho1976 писал(а):
76370657Можно и под спойлер.
А тех данные? Вы забыли указать для видео соотношение сторон и частота кадров в секунду; а для аудио частота дискретизации (kHz)
[Профиль]  [ЛС] 
 
Ответить
Loading...
Error