[ATV3] Суперсемейка 2 / Incredibles 2 (Брэд Бёрд / Brad Bird ) [2018, США, Мультфильм, фантастика, боевик, комедия, приключения, семейный, BDRip, HD (1080p)] DUB + Original + sub (rus, eng)

Страницы:  1

Ответить
Автор
Сообщение

pk5360114

Стаж: 9 лет 10 месяцев

Сообщений: 4112

pk5360114 · 04-Ноя-18 13:22 (1 месяц 9 дней назад, ред. 04-Ноя-18 13:35)

Суперсемейка 2 / Incredibles 2
«It's been too long, dahlings»
7.520 / 10 8.00 / 10

Год выпуска: 2018
Страна: США
Жанр: Мультфильм, фантастика, боевик, комедия, приключения, семейный
Продолжительность: 01:57:50
Перевод: Дублированный (iTunes)
Оригинальная аудиодорожка: Есть
Cубтитры: Русские форсированные, Русские, Русские SDH, Английские SDH
Режиссёр: Брэд Бёрд
Сценарий: Брэд Бёрд
Продюсер: Николь Паради Гриндл, Джон Лассетер, Джон Уокер
Оператор: Махьяр Абусаеди, Эрик Смитт
Композитор: Майкл Джаккино
Художник: Ральф Эгглстон, Джош Холтсклоу
Монтаж: Стефен Шаффер
В ролях: Крэйг Т. Нельсон, Холли Хантер, Сара Вауэлл, Хак Милнер, Кэтрин Кинер, Илай Фучиле, Боб Оденкёрк, Сэмюэл Л. Джексон, Майкл Бёрд, София Буш
Бюджет: $200 000 000
Сборы в США: $607 748 038
Сборы в мире: + $624 087 162 = $1 231 835 200
Сборы в России: $15 541 152
Мировая премьера: 5 июня 2018
Премьера (РФ): 14 июня 2018, «WDSSPR»
Цифровой релиз: 26 октября 2018, «Уолт Дисней Компани СНГ»
Описание: После событий первой части суперсемейка пользуется повышенным вниманием со стороны журналистов. Неожиданно оказалось, что обаятельная Миссис Исключительная гораздо лучше смотрится на экране телевизора, чем её муж. Мистеру Исключительному все чаще приходится сидеть дома и приглядывать за детьми, у каждого из которых есть свои причины быть недовольным собственными суперспособностями. Однако семейным проблемам предстоит отступить на второй план, когда окажется, что спокойствию Суперсемейки угрожает новый могущественный враг.
Качество исходника: BDRemux (NNMClub)
Качество: BDRip
Тип: HD (1080p)
Контейнер: M4V
Видео: H.264, 1920x800, 2.40:1, 6 500 Kbps, 23.976 (24000/1001) fps
Аудио 1: Русский/Дублированный (iTunes), AAC LC / 2.0 / 160 Kbps / 48.0 KHz
Аудио 2: Английский/Оригинальная дорожка , AAC LC / 2.0 / 160 Kbps / 48.0 KHz
Аудио 3: Русский/Дублированный (iTunes), AC-3 / 5.1 / 384 Kbps / 48.0 KHz
Аудио 4: Английский/Оригинальная дорожка , AC-3 / 5.1 / 640 Kbps / 48.0 KHz
Субтитры 1: Русские форсированные
Субтитры 2: Русские полные
Субтитры 3: Русские SDH
Субтитры 4: Английские SDH


iTunes Meta Tags
Код:
Sort Name: Incredibles 2
XID: Apple:vendor_id:2018-839650
contentID: 1392900449
Copyright: © 2018 Disney/Pixar
Screenwriters: Брэд Бёрд
Producers: Николь Паради Гриндл, Джон Лассетер, Джон Уокер
Director: Брэд Бёрд
Cast: Крэйг Т. Нельсон, Холли Хантер, Сара Вауэлл, Хак Милнер, Кэтрин Кинер, Илай Фучиле, Боб Оденкёрк, Сэмюэл Л. Джексон, Майкл Бёрд, София Буш
Studio: Pixar
Rating: 3
Long Description: После событий первой части суперсемейка пользуется повышенным вниманием со стороны журналистов. Неожиданно оказалось, что обаятельная Миссис Исключительная гораздо лучше смотрится на экране телевизора, чем её муж. Мистеру Исключительному все чаще приходится сидеть дома и приглядывать за детьми, у каждого из которых есть свои причины быть недовольным собственными суперспособностями. Однако семейным проблемам предстоит отступить на второй план, когда окажется, что спокойствию Суперсемейки угрожает новый могущественный враг.
Description: После событий первой части суперсемейка пользуется повышенным вниманием со стороны журналистов. Неожиданно оказалось, что обаятельная Миссис Исключительная гораздо лучше смотрится на экране телевизора, чем её муж. Мистеру Исключительному все чаще приходится сидеть дома и приглядывать за детьми, у каждого из которых есть свои причины быть недовольным собственными суперспособностями.
Release Date: 2018-06-15T07:00:00Z
Genre: Kids & Family
Artist: Brad Bird
Name: Incredibles 2
MediaInfo
Код:
General
Complete name                            : /Users/imac/HandBrake/Incredibles 2 (1080p HD).m4v
Format                                   : MPEG-4
Codec ID                                 : M4V  (M4V /M4A /mp42/isom)
File size                                : 6.46 GiB
Duration                                 : 1h 57mn
Overall bit rate mode                    : Variable
Overall bit rate                         : 7 850 Kbps
Movie name                               : Incredibles 2
Performer                                : Brad Bird
Director                                 : Брэд Бёрд
Actor                                    : Крэйг Т. Нельсон / Холли Хантер / Сара Вауэлл / Хак Милнер / Кэтрин Кинер / Илай Фучиле / Боб Оденкёрк / Сэмюэл Л. Джексон / Майкл Бёрд / София Буш
Screenplay by                            : Брэд Бёрд
Producer                                 : Николь Паради Гриндл / Джон Лассетер / Джон Уокер
Production studio                        : Pixar
Genre                                    : Kids & Family
ContentType                              : Short Film
Description                              : После событий первой части суперсемейка пользуется повышенным вниманием со стороны журналистов. Неожиданно оказалось, что обаятельная Миссис Исключительная гораздо лучше смотрится на экране телевизора, чем её муж. Мистеру Исключительному все чаще приходится сидеть дома и приглядывать за детьми, у каждого из которых есть свои причины быть недовольным собственными суперспособностями.
Recorded date                            : UTC 2018-06-15 07:00:00
Encoded date                             : UTC 2018-11-04 10:07:15
Tagged date                              : UTC 2018-11-04 10:10:19
Copyright                                : © 2018 Disney/Pixar
Cover                                    : Yes
Rating                                   : None
Title/Sort                               : Incredibles 2
LongDescription                          : После событий первой части суперсемейка пользуется повышенным вниманием со стороны журналистов. Неожиданно оказалось, что обаятельная Миссис Исключительная гораздо лучше смотрится на экране телевизора, чем её муж. Мистеру Исключительному все чаще приходится сидеть дома и приглядывать за детьми, у каждого из которых есть свои причины быть недовольным собственными суперспособностями. Однако семейным проблемам предстоит отступить на второй план, когда окажется, что спокойствию Суперсемейки угрожает новый могущественный враг.
AppleStoreCatalogID                      : 1392900449
Vendor                                   : Apple:vendor_id:2018-839650
ContentRating                            : mpaa|PG|200|
Video #1
ID                                       : 1
Format                                   : AVC
Format/Info                              : Advanced Video Codec
Format profile                           : [email protected]
Format settings                          : CABAC / 4 Ref Frames
Format settings, CABAC                   : Yes
Format settings, ReFrames                : 4 frames
Codec ID                                 : avc1
Codec ID/Info                            : Advanced Video Coding
Duration                                 : 1h 57mn
Source duration                          : 1h 57mn
Bit rate                                 : 6 500 Kbps
Width                                    : 1 920 pixels
Height                                   : 800 pixels
Display aspect ratio                     : 2.40:1
Frame rate mode                          : Variable
Frame rate                               : 23.976 (24000/1001) fps
Minimum frame rate                       : 23.974 fps
Maximum frame rate                       : 23.981 fps
Color space                              : YUV
Chroma subsampling                       : 4:2:0
Bit depth                                : 8 bits
Scan type                                : Progressive
Bits/(Pixel*Frame)                       : 0.177
Stream size                              : 5.35 GiB (83%)
Source stream size                       : 5.35 GiB (83%)
Title                                    : Main Program
Writing library                          : x264 core 155 r2901 7d0ff22
Encoding settings                        : cabac=1 / ref=4 / deblock=1:-2:-2 / analyse=0x3:0x133 / me=umh / subme=10 / psy=1 / psy_rd=1.00:0.15 / mixed_ref=1 / me_range=32 / chroma_me=1 / trellis=2 / 8x8dct=1 / cqm=0 / deadzone=21,11 / fast_pskip=1 / chroma_qp_offset=-3 / threads=25 / lookahead_threads=6 / sliced_threads=0 / nr=0 / decimate=0 / interlaced=0 / bluray_compat=0 / constrained_intra=0 / bframes=16 / b_pyramid=2 / b_adapt=2 / b_bias=0 / direct=3 / weightb=1 / open_gop=0 / weightp=2 / keyint=240 / keyint_min=24 / scenecut=40 / intra_refresh=0 / rc_lookahead=40 / rc=2pass / mbtree=1 / bitrate=6500 / ratetol=1.0 / qcomp=0.70 / qpmin=0 / qpmax=69 / qpstep=4 / cplxblur=20.0 / qblur=0.5 / ip_ratio=1.40 / aq=1:1.00
Language                                 : English
Encoded date                             : UTC 2018-11-04 10:07:15
Tagged date                              : UTC 2018-11-04 10:07:30
Color range                              : Limited
Color primaries                          : BT.709
Transfer characteristics                 : BT.709
Matrix coefficients                      : BT.709
Menus                                    : 10,11
Codec configuration box                  : avcC
Video #2
ID                                       : 11
Format                                   : JPEG
Codec ID                                 : jpeg
Duration                                 : 1h 57mn
Bit rate mode                            : Variable
Bit rate                                 : 1 323 bps
Width                                    : 640 pixels
Height                                   : 266 pixels
Display aspect ratio                     : 2.40:1
Frame rate mode                          : Variable
Frame rate                               : 0.005 fps
Minimum frame rate                       : 0.002 fps
Maximum frame rate                       : 0.023 fps
Color space                              : YUV
Chroma subsampling                       : 4:2:0
Bit depth                                : 8 bits
Compression mode                         : Lossy
Bits/(Pixel*Frame)                       : 1.554
Stream size                              : 1.14 MiB (0%)
Title                                    : Chapter Images
Language                                 : English
Default                                  : No
Encoded date                             : UTC 2018-11-04 10:07:50
Tagged date                              : UTC 2018-11-04 10:07:51
Menu For                                 : 1
ColorSpace_ICC                           : RGB
Audio #1
ID                                       : 2
Format                                   : AAC LC
Format/Info                              : Advanced Audio Codec Low Complexity
Codec ID                                 : mp4a-40-2
Duration                                 : 1h 57mn
Source duration                          : 1h 57mn
Bit rate mode                            : Variable
Bit rate                                 : 157 Kbps
Maximum bit rate                         : 241 Kbps
Channel(s)                               : 2 channels
Channel layout                           : L R
Sampling rate                            : 48.0 KHz
Frame rate                               : 46.875 fps (1024 SPF)
Compression mode                         : Lossy
Stream size                              : 132 MiB (2%)
Source stream size                       : 132 MiB (2%)
Title                                    : Russian Stereo
Language                                 : Russian
Default                                  : Yes
Alternate group                          : 1
Encoded date                             : UTC 2018-11-04 10:07:15
Tagged date                              : UTC 2018-11-04 10:07:35
Fallback From                            : 4
Subtitles                                : 6,7,8
Menus                                    : 10
Audio #2
ID                                       : 3
Format                                   : AAC LC
Format/Info                              : Advanced Audio Codec Low Complexity
Codec ID                                 : mp4a-40-2
Duration                                 : 1h 57mn
Source duration                          : 1h 57mn
Bit rate mode                            : Variable
Bit rate                                 : 158 Kbps
Maximum bit rate                         : 242 Kbps
Channel(s)                               : 2 channels
Channel layout                           : L R
Sampling rate                            : 48.0 KHz
Frame rate                               : 46.875 fps (1024 SPF)
Compression mode                         : Lossy
Stream size                              : 134 MiB (2%)
Source stream size                       : 134 MiB (2%)
Title                                    : English Stereo
Language                                 : English
Default                                  : No
Alternate group                          : 1
Encoded date                             : UTC 2018-11-04 10:07:15
Tagged date                              : UTC 2018-11-04 10:07:35
Fallback From                            : 5
Audio #3
ID                                       : 4
Format                                   : AC-3
Format/Info                              : Audio Coding 3
Commercial name                          : Dolby Digital
Codec ID                                 : ac-3
Duration                                 : 1h 57mn
Bit rate mode                            : Constant
Bit rate                                 : 384 Kbps
Channel(s)                               : 6 channels
Channel layout                           : L R C LFE Ls Rs
Sampling rate                            : 48.0 KHz
Frame rate                               : 31.250 fps (1536 SPF)
Bit depth                                : 16 bits
Compression mode                         : Lossy
Stream size                              : 324 MiB (5%)
Title                                    : Russian DD 5.1
Language                                 : Russian
Service kind                             : Complete Main
Default                                  : Inherited From: 2
Alternate group                          : 1
Encoded date                             : UTC 2018-11-04 10:07:15
Tagged date                              : UTC 2018-11-04 10:07:27
Fallback To                              : 2
Subtitles                                : 6,7,8
Audio #4
ID                                       : 5
Format                                   : AC-3
Format/Info                              : Audio Coding 3
Commercial name                          : Dolby Digital
Codec ID                                 : ac-3
Duration                                 : 1h 57mn
Bit rate mode                            : Constant
Bit rate                                 : 640 Kbps
Channel(s)                               : 6 channels
Channel layout                           : L R C LFE Ls Rs
Sampling rate                            : 48.0 KHz
Frame rate                               : 31.250 fps (1536 SPF)
Bit depth                                : 16 bits
Compression mode                         : Lossy
Stream size                              : 539 MiB (8%)
Title                                    : English DD 5.1
Language                                 : English
Service kind                             : Complete Main
Default                                  : No
Alternate group                          : 1
Encoded date                             : UTC 2018-11-04 10:07:15
Tagged date                              : UTC 2018-11-04 10:07:27
Fallback To                              : 3
Text #1
ID                                       : 6
Format                                   : Timed Text
Muxing mode                              : sbtl
Codec ID                                 : tx3g
Duration                                 : 1h 56mn
Bit rate mode                            : Variable
Bit rate                                 : 0 bps
Stream size                              : 212 Bytes (0%)
Title                                    : Russian forced
Language                                 : Russian
Default                                  : Yes
Forced                                   : Yes
Alternate group                          : 2
Encoded date                             : UTC 2018-11-04 10:07:15
Tagged date                              : UTC 2018-11-04 10:07:15
Subtitles For                            : 2,4
Full Alternative                         : 7,8
Text #2
ID                                       : 7
Format                                   : Timed Text
Muxing mode                              : sbtl
Codec ID                                 : tx3g
Duration                                 : 1h 56mn
Bit rate mode                            : Variable
Bit rate                                 : 129 bps
Stream size                              : 111 KiB (0%)
Title                                    : Russian full
Language                                 : Russian
Default                                  : No
Forced                                   : No
Alternate group                          : 2
Encoded date                             : UTC 2018-11-04 10:07:15
Tagged date                              : UTC 2018-11-04 10:07:15
Subtitles For                            : 2,4
Forced Alternative                       : 6
Text #3
ID                                       : 8
Format                                   : Timed Text
Muxing mode                              : sbtl
Codec ID                                 : tx3g
Duration                                 : 1h 55mn
Bit rate mode                            : Variable
Bit rate                                 : 143 bps
Stream size                              : 122 KiB (0%)
Title                                    : Russian SDH
Language                                 : Russian
Default                                  : No
Forced                                   : No
Alternate group                          : 2
Encoded date                             : UTC 2018-11-04 10:07:15
Tagged date                              : UTC 2018-11-04 10:07:15
Subtitles For                            : 2,4
Forced Alternative                       : 6
Text #4
ID                                       : 9
Format                                   : Timed Text
Muxing mode                              : sbtl
Codec ID                                 : tx3g
Duration                                 : 1h 55mn
Bit rate mode                            : Variable
Bit rate                                 : 96 bps
Stream size                              : 81.3 KiB (0%)
Title                                    : English SDH
Language                                 : English
Default                                  : No
Forced                                   : No
Alternate group                          : 2
Encoded date                             : UTC 2018-11-04 10:07:15
Tagged date                              : UTC 2018-11-04 10:07:15
Menu #1
00:00:00.000                             : 00:00:00.000
00:03:22.327                             : 00:03:22.327
00:08:53.616                             : 00:08:53.616
00:09:36.785                             : 00:09:36.784
00:13:38.276                             : 00:13:38.276
00:15:44.735                             : 00:15:44.735
00:21:19.737                             : 00:21:19.737
00:23:28.282                             : 00:23:28.282
00:27:08.794                             : 00:27:08.794
00:28:59.571                             : 00:28:59.571
00:35:10.900                             : 00:35:10.900
00:39:07.846                             : 00:39:07.845
00:42:43.895                             : 00:42:43.894
00:43:42.411                             : 00:43:42.411
00:47:35.353                             : 00:47:35.352
00:48:53.889                             : 00:48:53.889
00:54:15.586                             : 00:54:15.585
00:56:16.039                             : 00:56:16.039
01:00:58.697                             : 01:00:58.696
01:02:01.885                             : 01:02:01.884
01:06:55.512                             : 01:06:55.511
01:09:18.237                             : 01:09:18.237
01:11:28.201                             : 01:11:28.200
01:12:37.687                             : 01:12:37.686
01:14:39.266                             : 01:14:39.266
01:18:00.968                             : 01:18:00.968
01:20:32.536                             : 01:20:32.536
01:25:01.930                             : 01:25:01.930
01:27:59.441                             : 01:27:59.440
01:31:53.925                             : 01:31:53.925
01:33:26.434                             : 01:33:26.434
01:36:25.238                             : 01:36:25.237
01:37:45.193                             : 01:37:45.192
01:43:56.897                             : 01:43:56.897
01:45:35.913                             : 01:45:35.912
01:47:30.903                             : 01:47:30.902
Menu #2
ID                                       : 10
Codec ID                                 : text
Duration                                 : 1h 57mn
Language                                 : English
Encoded date                             : UTC 2018-11-04 10:07:35
Tagged date                              : UTC 2018-11-04 10:07:35
Bit rate mode                            : CBR
Menu For                                 : 2,1
00:00:00.000                             : 00:00:00.000
00:03:22.327                             : 00:03:22.327
00:08:53.616                             : 00:08:53.616
00:09:36.785                             : 00:09:36.784
00:13:38.276                             : 00:13:38.276
00:15:44.735                             : 00:15:44.735
00:21:19.737                             : 00:21:19.737
00:23:28.282                             : 00:23:28.282
00:27:08.794                             : 00:27:08.794
00:28:59.571                             : 00:28:59.571
00:35:10.900                             : 00:35:10.900
00:39:07.846                             : 00:39:07.845
00:42:43.895                             : 00:42:43.894
00:43:42.411                             : 00:43:42.411
00:47:35.353                             : 00:47:35.352
00:48:53.889                             : 00:48:53.889
00:54:15.586                             : 00:54:15.585
00:56:16.039                             : 00:56:16.039
01:00:58.697                             : 01:00:58.696
01:02:01.885                             : 01:02:01.884
01:06:55.512                             : 01:06:55.511
01:09:18.237                             : 01:09:18.237
01:11:28.201                             : 01:11:28.200
01:12:37.687                             : 01:12:37.686
01:14:39.266                             : 01:14:39.266
01:18:00.968                             : 01:18:00.968
01:20:32.536                             : 01:20:32.536
01:25:01.930                             : 01:25:01.930
01:27:59.441                             : 01:27:59.440
01:31:53.925                             : 01:31:53.925
01:33:26.434                             : 01:33:26.434
01:36:25.238                             : 01:36:25.237
01:37:45.193                             : 01:37:45.192
01:43:56.897                             : 01:43:56.897
01:45:35.913                             : 01:45:35.912
01:47:30.903                             : 01:47:30.902
x264 лог
Код:
x264 [info]: frame I:1228  Avg QP:15.05  size:206606
x264 [info]: frame P:48379 Avg QP:18.53  size: 62323
x264 [info]: frame B:119907 Avg QP:19.22  size: 20646
x264 [info]: consecutive B-frames:  8.0%  5.1% 13.3% 16.4% 21.7% 34.0%  1.0%  0.1%  0.0%  0.1%  0.0%  0.0%  0.0%  0.0%  0.0%  0.1%  0.1%
x264 [info]: mb I  I16..4: 25.2% 56.7% 18.0%
x264 [info]: mb P  I16..4:  4.9% 15.8%  1.8%  P16..4: 44.2% 16.9% 10.0%  0.3%  0.1%    skip: 5.9%
x264 [info]: mb B  I16..4:  0.4%  1.1%  0.2%  B16..8: 43.4%  9.4%  1.9%  direct: 5.5%  skip:38.1%  L0:46.7% L1:42.6% BI:10.7%
x264 [info]: 8x8 transform intra:68.6% inter:57.1%
x264 [info]: direct mvs  spatial:96.9% temporal:3.1%
x264 [info]: coded y,uvDC,uvAC intra: 83.8% 79.0% 54.7% inter: 24.7% 23.6% 8.4%
x264 [info]: i16 v,h,dc,p: 18% 16% 28% 38%
x264 [info]: i8 v,h,dc,ddl,ddr,vr,hd,vl,hu:  9% 11% 11%  9% 12% 11% 13% 11% 13%
x264 [info]: i4 v,h,dc,ddl,ddr,vr,hd,vl,hu: 10% 12%  6%  9% 14% 12% 14% 10% 13%
x264 [info]: i8c dc,h,v,p: 39% 27% 19% 15%
x264 [info]: Weighted P-Frames: Y:2.5% UV:1.8%
x264 [info]: ref P L0: 57.3%  9.2% 23.0%  9.5%  1.0%  0.0%
x264 [info]: ref B L0: 85.8% 11.5%  2.7%
x264 [info]: ref B L1: 95.7%  4.3%
x264 [info]: kb/s:6499.91
Скриншоты



Релиз подготовлен для просмотра на Apple TV, iPad, iPhone, iPod Touch.
Для просмотра данного релиза на компьютере с ОС Windows рекомендуется использовать VLC media player
Download
Для скачивания .torrent файлов необходима регистрация
Сайт не распространяет и не хранит электронные версии произведений, а лишь предоставляет доступ к создаваемому пользователями каталогу ссылок на торрент-файлы, которые содержат только списки хеш-сумм
[Профиль]  [ЛС] 

tAlisa

Стаж: 11 лет

Сообщений: 29

tAlisa · 04-Ноя-18 17:55 (спустя 4 часа)

[Цитировать] 

спасибо
[Профиль]  [ЛС] 

ESCALATE

Стаж: 8 лет 7 месяцев

Сообщений: 34

ESCALATE · 19-Ноя-18 22:16 (спустя 15 дней)

[Цитировать] 

Спасибо
[Профиль]  [ЛС] 

Hammer_of_Doom

Стаж: 8 лет 5 месяцев

Сообщений: 35

Hammer_of_Doom · 26-Ноя-18 20:03 (спустя 6 дней)

[Цитировать] 

Когда лицензия-то?
[Профиль]  [ЛС] 
 
Ответить
Loading...
Error