Своя игра. Осень 2018 [2018, телеигра, DVB] 24 выпуска из ?

Страницы:  1

Ответить
Автор
Сообщение

Sputnik2010

RG Документалисты

Стаж: 9 лет 6 месяцев

Сообщений: 3733

Sputnik2010 · 18-Окт-18 19:16 (1 месяц 1 день назад, ред. 18-Ноя-18 17:53)

Своя игра. Осень 2018
Дата/Год выпуска: 2018
Страна: Россия
Жанр: телеигра
Продолжительность: 24x41 мин.
Перевод: Не требуется
Русские субтитры: нет
Оригинальная аудиодорожка: русский
Режиссер: Пётр Кулешов
Телеканал: НТВОписание: «Своя игра» — российский вариант всемирно известной телеигры «Jeopardy!». Это одна из немногих по-настоящему интеллектуальных игр на российском телевидении. В каждом выпуске программы место за игровыми пультами занимают три интеллектуала. Им предстоит отвечать на вопросы из различных областей знаний. Каждый вопрос имеет свою стоимость. Если участник дает верный ответ, сумма переходит к нему на счет, если ошибается — очки снимаются. По ходу игры лидеры могут меняться несколько раз, ведь стремящиеся к победе люди готовы рисковать, лишь бы вырваться вперед. «Своя игра» — отличный способ проверить свои знания, открыть для себя что-то новое и понаблюдать за азартной борьбой интеллектуалов!Сэмпл: https://www.sendspace.com/file/yvbkbz
качество: DVB
формат: TS/M2TS
Видео: MPEG4 Video (H264) 720x576 (20:11) 2 671 kb/s 25fps
Аудио: MP3 192kbps 48000Hz stereo
Список выпусков/серий
1. Выпуск от 1 сентября 2018 года.
2. Выпуск от 2 сентября 2018 года.
3. Выпуск от 8 сентября 2018 года.
4. Выпуск от 9 сентября 2018 года.
5. Выпуск от 15 сентября 2018 года.
6. Выпуск от 16 сентября 2018 года.
7. Выпуск от 22 сентября 2018 года.
8. Выпуск от 23 сентября 2018 года.
9. Выпуск от 29 сентября 2018 года.
10. Выпуск от 30 сентября 2018 года.
11. Выпуск от 6 октября 2018 года*.
12. Выпуск от 7 октября 2018 года.
13. Выпуск от 13 октября 2018 года.
14. Выпуск от 14 октября 2018 года*.
15. Выпуск от 20 октября 2018 года*.
16. Выпуск от 21 октября 2018 года*.
17. Выпуск от 27 октября 2018 года*.
18. Выпуск от 28 октября 2018 года*.
19. Выпуск от 3 ноября 2018 года.
20. Выпуск от 4 ноября 2018 года*.
21. Выпуск от 10 ноября 2018 года*.
22. Выпуск от 11 ноября 2018 года*.
23. Выпуск от 17 ноября 2018 года*.
24. Выпуск от 18 ноября 2018 года.
Про скрытые субтитры

Некоторые выпуски программы "Своя игра" сопровождаются скрытыми субтитрами, в списке выпусков они обозначены звездочкой*.
Для вывода субтитров на экран вам понадобится программа VLC media player (см. скриншот выше).
Кнопка [1] включает отображение телетекста. В поле [3] необходимо ввести номер страницы (888). Нажмите кнопку [2] для того, чтобы вокруг текста появилась черная рамка как на скриншоте.
MediaInfo
General
ID : 1 (0x1)
Complete name : F:\Мои раздачи\Телепрограммы\Своя игра. Осень 2018\Своя игра (2018-10-06) +sub.ts
Format : MPEG-TS
File size : 882 MiB
Duration : 40 min 54 s
Overall bit rate mode : Variable
Overall bit rate : 3 014 kb/s
Video
ID : 1041 (0x411)
Menu ID : 1 (0x1)
Format : AVC
Format/Info : Advanced Video Codec
Format profile : [email protected]
Format settings : CABAC / 3 Ref Frames
Format settings, CABAC : Yes
Format settings, ReFrames : 3 frames
Format settings, GOP : M=4, N=28
Codec ID : 27
Duration : 40 min 54 s
Bit rate : 2 671 kb/s
Width : 720 pixels
Height : 576 pixels
Display aspect ratio : 16:9
Frame rate : 25.000 FPS
Standard : Component
Color space : YUV
Chroma subsampling : 4:2:0
Bit depth : 8 bits
Scan type : Interlaced
Scan type, store method : Separated fields
Scan order : Top Field First
Bits/(Pixel*Frame) : 0.258
Stream size : 782 MiB (89%)
Color range : Limited
Color primaries : BT.601 PAL
Transfer characteristics : BT.470 System B/G
Matrix coefficients : BT.470 System B/G
Audio
ID : 1042 (0x412)
Menu ID : 1 (0x1)
Format : MPEG Audio
Format version : Version 1
Format profile : Layer 2
Codec ID : 3
Duration : 40 min 54 s
Bit rate mode : Constant
Bit rate : 192 kb/s
Channel(s) : 2 channels
Sampling rate : 48.0 kHz
Frame rate : 41.667 FPS (1152 SPF)
Compression mode : Lossy
Stream size : 56.2 MiB (6%)
Language : English
Other
ID : 1044 (0x414)-100
Menu ID : 1 (0x1)
Format : Teletext
Language : Russian
Анаморфированные скриншоты
Download
Для скачивания .torrent файлов необходима регистрация
Сайт не распространяет и не хранит электронные версии произведений, а лишь предоставляет доступ к создаваемому пользователями каталогу ссылок на торрент-файлы, которые содержат только списки хеш-сумм
[Профиль]  [ЛС] 
 
Ответить
Loading...
Error