Матриархат / Girl Power (Leslie Schwerin / Лесли Шверин) [2018, Документальный, флора и фауна, HDTV 1080i]

Страницы:  1

Ответить
Автор
Сообщение

kyba62

Top Bonus 07* 100TB

Стаж: 10 лет 6 месяцев

Сообщений: 649

kyba62 · 18-Сен-18 21:39 (2 месяца 2 дня назад, ред. 18-Сен-18 21:46)

Матриархат / Girl Power
Год выпуска: 2018
Страна: США
Студия: For National Geographic Channels
Жанр: Документальный, флора и фауна
Продолжительность: 00:44:00
Перевод: Студийный (одноголосый закадровый)
Режиссер: Leslie Schwerin / Лесли Шверин
Описание: Попробуйте посмотреть на жизнь в условиях дикой природы со стороны тех, кто живет в ее условиях: здесь царят стратегии убийства ради выживания, жестокие брачные игры, самые суровые формы материнства. Эти девушки совершенно не знают правил, они сами создают их.
Сэмпл: https://www.sendspace.com/file/34wtjc
Тип релиза: HDTV 1080i
Контейнер: MKV
Видео: 1920x1080 (16:9), 25 fps, AVC (x264), [email protected], 6994 kbps, 25fps, 0.135 bit/pixel
Аудио: Русский 48 kHz, MPEG Layer 2, 2 ch, ~192.00 kbps avg
Аудио 2: Английский 48 kHz, MPEG Layer 2, 2 ch, ~192.00 kbps avg
MediaInfo
Complete name               : F:\Наладки\Матриархат.mkv
Format : Matroska
Format version : Version 4 / Version 2
File size : 2.31 GiB
Duration : 43 min 58 s
Overall bit rate : 7 527 kb/s
Encoded date : UTC 2018-09-18 18:00:52
Writing application : mkvmerge v6.6.0 ('The Edge Of The In Between') built on Dec 1 2013 17:55:00
Writing library : libebml v1.3.0 + libmatroska v1.4.1
Video
ID : 1
Format : AVC
Format/Info : Advanced Video Codec
Format profile : [email protected]
Format settings : CABAC / 4 Ref Frames
Format settings, CABAC : Yes
Format settings, ReFrames : 4 frames
Codec ID : V_MPEG4/ISO/AVC
Duration : 43 min 58 s
Bit rate : 6 994 kb/s
Width : 1 920 pixels
Height : 1 080 pixels
Display aspect ratio : 16:9
Frame rate mode : Constant
Frame rate : 25.000 FPS
Standard : Component
Color space : YUV
Chroma subsampling : 4:2:0
Bit depth : 8 bits
Scan type : Interlaced
Scan type, store method : Separated fields
Scan order : Top Field First
Bits/(Pixel*Frame) : 0.135
Stream size : 2.15 GiB (93%)
Default : Yes
Forced : No
Color range : Limited
Color primaries : BT.709
Transfer characteristics : BT.709
Matrix coefficients : BT.709
Audio #1
ID : 2
Format : MPEG Audio
Format version : Version 1
Format profile : Layer 2
Codec ID : A_MPEG/L2
Codec ID/Hint : MP2
Duration : 43 min 58 s
Bit rate mode : Constant
Bit rate : 192 kb/s
Channel(s) : 2 channels
Sampling rate : 48.0 kHz
Compression mode : Lossy
Stream size : 60.4 MiB (3%)
Language : Russian
Default : Yes
Forced : No
Audio #2
ID : 3
Format : MPEG Audio
Format version : Version 1
Format profile : Layer 2
Codec ID : A_MPEG/L2
Codec ID/Hint : MP2
Duration : 43 min 58 s
Bit rate mode : Constant
Bit rate : 192 kb/s
Channel(s) : 2 channels
Sampling rate : 48.0 kHz
Compression mode : Lossy
Stream size : 60.4 MiB (3%)
Language : English
Default : No
Forced : No
Скриншоты
Download
Для скачивания .torrent файлов необходима регистрация
Сайт не распространяет и не хранит электронные версии произведений, а лишь предоставляет доступ к создаваемому пользователями каталогу ссылок на торрент-файлы, которые содержат только списки хеш-сумм
[Профиль]  [ЛС] 
 
Ответить
Loading...
Error