Спилберг / Spielberg (Сьюзен Лейси / Susan Lacy) [2017, документальный, биография, WEB-DL 1080p] DVO + Sub Rus, Eng

Страницы:  1

Ответить
Автор
Сообщение

Pigy

RG Русские сериалы

Стаж: 10 лет

Сообщений: 3434

Pigy · 17-Сен-18 18:52 (1 месяц 27 дней назад)

Спилберг / Spielberg
Год выпуска: 2018
Страна: США
Студия: HBO Documentary Films
Жанр: документальный, биография
Продолжительность: 02:26:45
Перевод: Профессиональный (двухголосый закадровый) Amedia
Субтитры: русские, английские
Режиссер: Сьюзен Лейси / Susan Lacy
В ролях: Стивен Спилберг, Мартин Скорсезе, Ричард Дрейфусс, Билл Батлер, Джон Уильямс, Дэвид Эдельштейн, Майкл Филлипс, Нэнси Спилберг, Энн Спилберг, Джанет Мэслин
Описание: Фильм, посвященный одному из главных режиссеров в истории мирового кино. В нем прослеживается его путь от первых любительских картин, сделанных в детстве, до крупнейших голливудских блокбастеров.
Кинопоиск - IMDb
Sample
Тип релиза: WEB-DL 1080p - TeamHD - BenderBEST
Контейнер: MKV
Видео: MPEG4 AVC Video, H264, 16:9, 1920x1080, 23.976 fps, 9489 kbps
Аудио: Russian (AC-3, 2 ch, 192 kbps, 16 bits, 48.0 KHz) - DVO
Аудио: English (E-AC-3, 6 ch, 640 kbps, 16 bits, 48.0 KHz) - оригинал
MediaInfo
General
Unique ID : 209763347169111368140471182175208983915 (0x9DCEF37EE156F1F5882CE3016983CD6B)
Complete name : J:\Spielberg.2017.1080p.AMZN.WEB-DL.Rus.Eng_TeamHD.mkv
Format : Matroska
Format version : Version 4 / Version 2
File size : 10.8 GiB
Duration : 2h 26mn
Overall bit rate mode : Variable
Overall bit rate : 10.5 Mbps
Movie name : Spielberg - ReJliz TeamHD by BenderBEST
Encoded date : UTC 2018-09-14 21:26:17
Writing application : mkvmerge v6.9.1 ('Blue Panther') 32bit built on Apr 18 2014 18:15:44
Writing library : libebml v1.3.0 + libmatroska v1.4.1
Video
ID : 1
Format : AVC
Format/Info : Advanced Video Codec
Format profile : [email protected]
Format settings, CABAC : Yes
Format settings, ReFrames : 4 frames
Codec ID : V_MPEG4/ISO/AVC
Duration : 2h 26mn
Bit rate mode : Variable
Bit rate : 9 489 Kbps
Maximum bit rate : 15.0 Mbps
Width : 1 920 pixels
Height : 1 080 pixels
Display aspect ratio : 16:9
Frame rate mode : Constant
Frame rate : 23.976 fps
Color space : YUV
Chroma subsampling : 4:2:0
Bit depth : 8 bits
Scan type : Progressive
Bits/(Pixel*Frame) : 0.191
Stream size : 9.73 GiB (90%)
Language : English
Default : Yes
Forced : Yes
Color primaries : BT.709
Transfer characteristics : BT.709
Matrix coefficients : BT.709
Audio #1
ID : 2
Format : AC-3
Format/Info : Audio Coding 3
Mode extension : CM (complete main)
Format settings, Endianness : Big
Codec ID : A_AC3
Duration : 2h 26mn
Bit rate mode : Constant
Bit rate : 192 Kbps
Channel count : 2 channels
Channel positions : Front: L R
Sampling rate : 48.0 KHz
Bit depth : 16 bits
Compression mode : Lossy
Stream size : 202 MiB (2%)
Title : AC3 2.0 @ 192 kbps - MVO, Amedia
Language : Russian
Default : Yes
Forced : Yes
Audio #2
ID : 3
Format : E-AC-3
Format/Info : Audio Coding 3
Format settings, Endianness : Big
Codec ID : A_EAC3
Duration : 2h 26mn
Bit rate mode : Constant
Bit rate : 640 Kbps
Channel count : 6 channels
Channel positions : Front: L C R, Side: L R, LFE
Sampling rate : 48.0 KHz
Compression mode : Lossy
Delay relative to video : 24ms
Stream size : 672 MiB (6%)
Title : EAC3 5.1 @ 640 kbps
Language : English
Default : No
Forced : No
Text #1
ID : 4
Format : UTF-8
Codec ID : S_TEXT/UTF8
Codec ID/Info : UTF-8 Plain Text
Language : Russian
Default : No
Forced : No
Text #2
ID : 5
Format : UTF-8
Codec ID : S_TEXT/UTF8
Codec ID/Info : UTF-8 Plain Text
Language : English
Default : No
Forced : No
Скриншоты
Download
Для скачивания .torrent файлов необходима регистрация
Сайт не распространяет и не хранит электронные версии произведений, а лишь предоставляет доступ к создаваемому пользователями каталогу ссылок на торрент-файлы, которые содержат только списки хеш-сумм
[Профиль]  [ЛС] 

Wilmots

Стаж: 11 лет 10 месяцев

Сообщений: 227

Wilmots · 17-Сен-18 21:51 (спустя 2 часа 58 мин.)

[Цитировать] 

За 5.1 - в ЛС.
[Профиль]  [ЛС] 
 
Ответить
Loading...
Error