Акулы из другого мира / Alien Sharks - greatest hits [2018, Документальный, HDTV 1080i, RUS/ENG]

Страницы:  1

Ответить
Автор
Сообщение

dean10

Стажер-модератор

Стаж: 8 лет 10 месяцев

Сообщений: 5836

dean10 · 03-Авг-18 17:06 (3 месяца 14 дней назад, ред. 03-Авг-18 18:42)

Акулы из другого мира / Alien Sharks - greatest hits
Год выпуска: 2018
Страна: Великобритания
Студия: Discovery
Жанр: Документальный
Продолжительность: 00:42:55
Перевод: Студийный (одноголосый закадровый)
Доп. инфо о переводе: sg media / Владимир Рыбальченко
Русские субтитры: нет
Описание:
Группа специалистов отправится на поиски самых необычных акул в мире, в том числе глубоководных акул-домовых.
Сэмпл: http://multi-up.com/1205347
Тип релиза: HDTV 1080i
Контейнер: TS
Видео: AVC, 1920x1080, (16:9), 25 fps, 6 753 kb/s
Аудио: Russian, AC3, 48 kHz, 2 ch; 384 kbps
Аудио 2: ENG, AC3, 48 kHz, 2 ch; 384 kbps
MediaInfo
General
ID : 1 (0x1)
Complete name : C:\Акулы из другого мира_HDTV 1080i_RUS_ENG-dds.ts
Format : MPEG-TS
File size : 2.37 GiB
Duration : 42 min 55 s
Overall bit rate mode : Variable
Overall bit rate : 7 921 kb/s
Video
ID : 325 (0x145)
Menu ID : 12105 (0x2F49)
Format : AVC
Format/Info : Advanced Video Codec
Format profile : [email protected]
Format settings : CABAC / 4 Ref Frames
Format settings, CABAC : Yes
Format settings, RefFrames : 4 frames
Codec ID : 27
Duration : 42 min 55 s
Bit rate : 6 753 kb/s
Width : 1 920 pixels
Height : 1 080 pixels
Display aspect ratio : 16:9
Frame rate : 25.000 FPS
Standard : Component
Color space : YUV
Chroma subsampling : 4:2:0
Bit depth : 8 bits
Scan type : Interlaced
Scan type, store method : Separated fields
Scan order : Top Field First
Bits/(Pixel*Frame) : 0.130
Stream size : 2.02 GiB (85%)
Color range : Limited
Color primaries : BT.709
Transfer characteristics : BT.709
Matrix coefficients : BT.709
Audio #1
ID : 405 (0x195)
Menu ID : 12105 (0x2F49)
Format : AC-3
Format/Info : Audio Coding 3
Codec ID : 6
Duration : 42 min 55 s
Bit rate mode : Constant
Bit rate : 384 kb/s
Channel(s) : 6 channels
Channel positions : Front: L C R, Side: L R, LFE
Sampling rate : 48.0 kHz
Frame rate : 31.250 FPS (1536 SPF)
Bit depth : 16 bits
Compression mode : Lossy
Delay relative to video : -80 ms
Stream size : 118 MiB (5%)
Language : Russian
Service kind : Complete Main
Audio #2
ID : 425 (0x1A9)
Menu ID : 12105 (0x2F49)
Format : AC-3
Format/Info : Audio Coding 3
Codec ID : 6
Duration : 42 min 55 s
Bit rate mode : Constant
Bit rate : 384 kb/s
Channel(s) : 6 channels
Channel positions : Front: L C R, Side: L R, LFE
Sampling rate : 48.0 kHz
Frame rate : 31.250 FPS (1536 SPF)
Bit depth : 16 bits
Compression mode : Lossy
Delay relative to video : -80 ms
Stream size : 118 MiB (5%)
Language : English
Service kind : Complete Main
Скриншоты
Download
Для скачивания .torrent файлов необходима регистрация
Сайт не распространяет и не хранит электронные версии произведений, а лишь предоставляет доступ к создаваемому пользователями каталогу ссылок на торрент-файлы, которые содержат только списки хеш-сумм
[Профиль]  [ЛС] 
 
Ответить
Loading...
Error