Бессмертные (15 серий ) / The Immortals [2018, Спорт, биография, HDTV 1080i, RUS/ENG]

Страницы:  1

Ответить
Автор
Сообщение

dean10

Стажер-модератор

Стаж: 8 лет 10 месяцев

Сообщений: 5824

dean10 · 20-Июл-18 10:56 (3 месяца 26 дней назад, ред. 03-Авг-18 15:39)

Бессмертные / The Immortals
Год выпуска: 2018
Страна: Ireland
Студия: Setanta HD
Жанр: Спорт, биография
Продолжительность: 15x ~ 00:26:00
Перевод: Профессиональный (дублированный)
Русские субтитры: нет
Описание:
Короткие фильмы о великих спортсменах
03.08.2018 _ Добавил: Karl Lyuis_Mo Farah_Salli Pirson
Выпуски

Aleks Fergyuson_Gerd Myuller_Karlos Alberto
Dgek Niklaus_Tom Uotson_Annika Syorenstam
Diego Maradona_Eysebio_George Best
Lionel Messi_Marko van Basten_Ruud Gullit_Ferents Pushkash
Karl Lyuis_Mo Farah_Salli Pirson
Mohammed Ali_Menni Pakyao_Shugar_Rey Robinson
Pele_Dganluidgi Buffon_Alfredo_Di_Stefano
Pit Sampras_Monika Selesh_Born Borg
Rodger Federer_Rod Leyver_Dgon Makinroy_Shteffi Graf
Ronaldo_Mishel Platini_Fabio Kannavaro_Lev Yashin
Ueyn Runi_Luish Figu_Andres Inesta_Kenni Dalglish
Useyn Bolt_Sergey Bubka_Elena Isinbaeva_Valeri_Adam
Yohan Kroyf_Erik Kantona_Roberto Badgo
Сэмпл: http://multi-up.com/1204224
Тип релиза: HDTV 1080i
Контейнер: TS
Видео: AVC, 1920x1080, (16:9), 25 fps, 5.2 Mbps
Аудио: Русский, MP2, 2 ch, 48 KHz, 192 Kbps
Аудио 2: ENG, MP2, 2 ch, 48 KHz, 192 Kbps
MediaInfo
General
ID : 1 (0x1)
Complete name : C:\The_Immortals_HDTV 1080i_RUS_ENG-dds\Mohammed_Ali_Menni_Pakyao_Shugar_Rey_Robinson.ts
Format : MPEG-TS
File size : 1.05 GiB
Duration : 25 min 51 s
Overall bit rate mode : Variable
Overall bit rate : 5 812 kb/s
Video
ID : 7511 (0x1D57)
Menu ID : 7510 (0x1D56)
Format : AVC
Format/Info : Advanced Video Codec
Format profile : [email protected]
Format settings : CABAC / 3 Ref Frames
Format settings, CABAC : Yes
Format settings, RefFrames : 3 frames
Codec ID : 27
Duration : 25 min 51 s
Bit rate mode : Constant
Bit rate : 5 145 kb/s
Width : 1 920 pixels
Height : 1 080 pixels
Display aspect ratio : 16:9
Frame rate : 25.000 FPS
Color space : YUV
Chroma subsampling : 4:2:0
Bit depth : 8 bits
Scan type : MBAFF
Scan type, store method : Interleaved fields
Scan order : Top Field First
Bits/(Pixel*Frame) : 0.099
Stream size : 950 MiB (88%)
Color range : Limited
Color primaries : BT.709
Transfer characteristics : BT.709
Matrix coefficients : BT.709
Audio #1
ID : 7512 (0x1D58)
Menu ID : 7510 (0x1D56)
Format : MPEG Audio
Format version : Version 1
Format profile : Layer 2
Codec ID : 3
Duration : 25 min 51 s
Bit rate mode : Constant
Bit rate : 192 kb/s
Channel(s) : 2 channels
Sampling rate : 48.0 kHz
Frame rate : 41.667 FPS (1152 SPF)
Compression mode : Lossy
Stream size : 35.5 MiB (3%)
Language : English
Audio #2
ID : 7513 (0x1D59)
Menu ID : 7510 (0x1D56)
Format : MPEG Audio
Format version : Version 1
Format profile : Layer 2
Codec ID : 3
Duration : 25 min 51 s
Bit rate mode : Constant
Bit rate : 192 kb/s
Channel(s) : 2 channels
Sampling rate : 48.0 kHz
Frame rate : 41.667 FPS (1152 SPF)
Compression mode : Lossy
Stream size : 35.5 MiB (3%)
Language : English
Скриншоты
Download
Для скачивания .torrent файлов необходима регистрация
Сайт не распространяет и не хранит электронные версии произведений, а лишь предоставляет доступ к создаваемому пользователями каталогу ссылок на торрент-файлы, которые содержат только списки хеш-сумм
[Профиль]  [ЛС] 

dean10

Стажер-модератор

Стаж: 8 лет 10 месяцев

Сообщений: 5824

dean10 · 27-Июл-18 09:48 (спустя 6 дней, ред. 27-Июл-18 09:48)

[Цитировать] 

23.07.2018 _ Добавил:
Pit Sampras_Monika Selesh_Born Borg
Rodger Federer_Rod Leyver_Dgon Makinroy_Shteffi Graf
Useyn Bolt_Sergey Bubka_Elena Isinbaeva_Valeri Adam
Yohan Kroyf_Erik Kantona_Roberto Badgo

------------------------------------------------------------------------
24.07.2018 _ Добавил:
Aleks Fergyuson_Gerd Myuller_Karlos Alberto
Diego Maradona_Eysebio_George Best
Lionel Messi_Marko van Basten_Ruud Gullit_Ferents Pushkash

-------------------------------------------------------------------------
27.07.2018 _ Добавил: Ronaldo_Mishel Platini_Fabio Kannavaro_Lev Yashin
[Профиль]  [ЛС] 

wertyui999

Стаж: 5 лет 10 месяцев

Сообщений: 23


wertyui999 · 27-Июл-18 18:02 (спустя 8 часов)

[Цитировать] 

Когда рядом с Марадонй,Пеле и Яшином ставят месси и роналдо сразу отпадает желание смотреть
[Профиль]  [ЛС] 

dean10

Стажер-модератор

Стаж: 8 лет 10 месяцев

Сообщений: 5824

dean10 · 03-Авг-18 15:40 (спустя 6 дней, ред. 03-Авг-18 15:40)

[Цитировать] 

01.08.2018 _ Добавил:
Dgek Niklaus_Tom Uotson_Annika Syorenstam
Pele_Dganluidgi Buffon_Alfredo Di Stefano

03.08.2018 _ Добавил: Karl Lyuis_Mo Farah_Salli Pirson
[Профиль]  [ЛС] 

anbelk27

Admin

Стаж: 9 лет 7 месяцев

Сообщений: 6359

anbelk27 · 17-Сен-18 21:35 (спустя 1 месяц 14 дней)

[Цитировать] 

dean10 писал(а):
75690684Bit rate : 5 145 kb/s
Низкий битрейт
# сомнительно
[Профиль]  [ЛС] 

juventus78

Стаж: 10 лет 6 месяцев

Сообщений: 169

juventus78 · 16-Окт-18 17:02 (спустя 28 дней)

[Цитировать] 

seedik bi
[Профиль]  [ЛС] 
 
Ответить
Loading...
Error