Сергей Шнуров. Экспонат [2018, Документальное кино, HDTV 1080i]

Страницы:  1

Ответить
Автор
Сообщение

Scorpman

VIP (Заслуженный)

Стаж: 11 лет 2 месяца

Сообщений: 3221

Scorpman · 12-Май-18 07:45 (6 месяцев назад, ред. 12-Май-18 08:19)

Сергей Шнуров. Экспонат

Год выпуска: 2018
Страна: Россия
Жанр: Документальное кино
Продолжительность: 00:56:26
Автор сценария: Кирилл Звягин
Режиссер: Константин Смилга
Продюсер: Илья Кривицкий
Производство: «Красный квадрат»
В фильме приняли участие:
Дмитрий Нагиев, телеведущий
Григорий Лепс, певец
Матильда Шнурова, жена Сергея Шнурова
Бывшие и нынешние участники группы «Ленинград»: Игорь Вдовин, Андрей «Андромедыч» Антоненко, Александр «Пузо» Попов, Всеволод «Севыч» Антонов, Роман «Ромеро» Фокин
Виктор Гинзбург, режиссер
Александр Кержаков, футболист
Борис Хлебников, режиссер
Василий Уткин, спортивный журналист, телекомментатор
Юлия Коган, бывшая солистка группы «Ленинград»
Анна Пармас, режиссер и сценарист
Илья Найшуллер, режиссер
Филипп Дзядко, журналист, главный редактор образовательного проекта «Арзамас»
Александр Невзоров, журналист
Максим Семеляк, журналист, автор книги о Сергее Шнурове и группе «Ленинград»

Описание:
Многие знают его как шоумена и телеведущего. Кто-то знает его как киноактера. Кто-то знаком с его музыкой к фильмам. Еще недавно у половины страны на мобильных в качестве звонка стояла написанная им мелодия для фильма «Бумер». Но большинство все же знает Сергея Шнурова как Шнура — автора и исполнителя песен, бессменного лидера группировки «Ленинград».
В 2017 году «Ленинграду» исполнилось ровно 20 лет. Эту дату музыканты отметили концертом на стадионе «Открытие Арена», собрав на свое выступление 47 тысяч человек. "Я существую для зрителя, - говорит Сергей Шнуров. - Мне важно представление на сцене, чтобы были мартышки, медведи, клоуны. У нас все артисты думают, что это зрители существуют для них. У меня обратный вектор".
Не всегда творческий путь группировки был таким, как сейчас. На два года Шнуров даже распустил коллектив. В тот момент нужно было понять, как развиваться дальше. Было решено в компанию брутальных мужчин позвать солистку, которая вскружит голову абсолютно всем. Этой счастливицей оказалась рыжеволосая Юлия Коган. Для Юлии была написана песня «Сладкий сон», которая стала новым хитом. "Клипы к песням группировки «Ленинград» называют произведениями искусства, - отмечает Юлия Коган. - Каждый из них сразу же после выхода становится событием. Только два из них — «Экспонат» и "В Питере — пить!" — набрали свыше 200 миллионов просмотров".
Вокруг Сергея Шнурова и его коллектива уже давно сложилась очень загадочная атмосфера. Для одних он алкоголик и хулиган, а для других — свой парень, которому можно абсолютно все. "Алкоголь вообще никак не помогает творчеству, - уверяет Сергей Шнуров. - Ни одной песни я не написал, будучи пьяным. Тут уж надо выбирать, что тебе важнее — сыграть концерт или напиться".
Несмотря на дерзкий сценический образ, Шнуров является женатым человеком уже больше 10 лет. Матильду и Сергея познакомили общие друзья. Сам музыкант не раз признавался, что Матильда сразу стала его музой, и именно благодаря ей получилось вновь возродить «Ленинград». Сейчас Матильда Шнурова занимается ресторанным бизнесом и руководит балетной школой. "Моя жена для меня самый близкий человек, - говорит Сергей Шнуров. - Мне нужна была такая сильная женщина, которая может сказать мне «нет», которая не поддается на мои уловки. Матильда быстро со мной разобралась, от чего я очень счастлив".
Не многие знают, что Шнуров учился в Религиозно-философском институте при духовной академии, но обучение не закончил. Сменил множество профессий, работал грузчиком, сторожем, пробовал себя в рекламном агентстве и на радио. В прошлом году в Петербурге и Москве с большим успехом прошла выставка картин Сергея Шнурова. Шнуров работает в жанре, который сам называет «брендреализм». Концепция заключается в том, что бренд в нашу эпоху определяет характер и стиль человека.
Самого себя Шнуров уже давно превратил в очень успешный и повсюду узнаваемый бренд. Как ему это удалось? Существует ли рецепт, по которому можно добиться такого феноменального успеха, и каковы его составляющие?
Качество: HDTV 1080i
Формат: MPEG-TS
Видео кодек: H.264
Аудио кодек: АС3
Видео: MPEG4 Video (H264) 1920x1080, 25fps, ~10 Мбит/сек
Аудио: 384 Kbps : 6сн : 48,0 КГц
Скриншоты
МИ
Общее
Идентификатор : 1 (0x1)
Полное имя : C:\Сергей Шнуров. Экспонат_bySat.ts
Формат : MPEG-TS
Размер файла : 4,27 Гбайт
Продолжительность : 56 м.
Режим общего битрейта : Переменный
Общий поток : 10,8 Мбит/сек
Видео
Идентификатор : 205 (0xCD)
Идентификатор меню : 1 (0x1)
Формат : AVC
Формат/Информация : Advanced Video Codec
Профиль формата : [email protected]
Параметр CABAC формата : Да
Параметр ReFrames формата : 4 кадра
Идентификатор кодека : 27
Продолжительность : 56 м.
Битрейт : 9910 Кбит/сек
Ширина : 1920 пикселей
Высота : 1080 пикселей
Соотношение сторон : 16:9
Частота кадров : 25,000 кадров/сек
Стандарт вещания : Component
Цветовое пространство : YUV
Субдискретизация насыщенности : 4:2:0
Битовая глубина : 8 бит
Тип развёртки : Чересстрочная
Порядок развёртки : Верхнее поле первое
Бит/(Пиксели*Кадры) : 0.191
Размер потока : 3,91 Гбайт (91%)
Основные цвета : BT.709
Характеристики трансфера : BT.709
Коэффициенты матрицы : BT.709
colour_range : Limited
Аудио
Идентификатор : 405 (0x195)
Идентификатор меню : 1 (0x1)
Формат : AC-3
Формат/Информация : Audio Coding 3
Расширение режима : CM (complete main)
Параметр Endianness формата : Big
Идентификатор кодека : 6
Продолжительность : 56 м.
Вид битрейта : Постоянный
Битрейт : 384 Кбит/сек
Каналы : 6 каналов
Расположение каналов : Front: L C R, Side: L R, LFE
Частота : 48,0 КГц
Битовая глубина : 16 бит
Метод сжатия : С потерями
Размер потока : 155 Мбайт (4%)
Язык : Russian
Текст #1
Идентификатор : 505 (0x1F9)-100
Идентификатор меню : 1 (0x1)
Формат : Teletext
Язык : Russian
Текст #2
Идентификатор : 505 (0x1F9)-888
Идентификатор меню : 1 (0x1)
Формат : Teletext Subtitle
Язык : Russian
Язык, дополнительно : For hearing impaired people
Меню
Идентификатор : 256 (0x100)
Идентификатор меню : 1 (0x1)
Продолжительность : 56 м.
Список : 205 (0xCD) (AVC) / 405 (0x195) (AC-3, Russian) / 505 (0x1F9) ()
Язык : / Russian
Download
Для скачивания .torrent файлов необходима регистрация
Сайт не распространяет и не хранит электронные версии произведений, а лишь предоставляет доступ к создаваемому пользователями каталогу ссылок на торрент-файлы, которые содержат только списки хеш-сумм
[Профиль]  [ЛС] 

bot · 12-Май-18 07:55 (спустя 10 мин.)

Тема была перенесена из форума Releasers (Оформление раздач) в форум Биографии. Личности и кумиры (HD Video)
Scorpman
 

bizzizzi

Стаж: 8 лет 8 месяцев

Сообщений: 7


bizzizzi · 19-Май-18 04:56 (спустя 6 дней)

[Цитировать] 

Ну вот. Есть что посмотреть. А то хуйню какую-то снимают.
[Профиль]  [ЛС] 

ItsDesuTime

Стаж: 8 лет 10 месяцев

Сообщений: 4

ItsDesuTime · 23-Май-18 16:26 (спустя 4 дня)

[Цитировать] 

Вышла переделанная версия на ютубе без цензуры и логотипов...
[Профиль]  [ЛС] 
 
Ответить
Loading...
Error