Аистенок Кич (Леонид Домнин) [1971, СССР, мультфильм, перекладки, Telesync]

Страницы:  1

Ответить
Автор
Сообщение

xfiles

RG Мультфильмы

Стаж: 11 лет 1 месяц

Сообщений: 43480

xfiles · 09-Апр-18 11:57 (8 месяцев назад, ред. 09-Апр-18 12:11)

Аистенок Кич
Страна: СССР
Студия: Молдова-фильм
Жанр: мультфильм
Год выпуска: 1971
Продолжительность: 00:09:24
Режиссер: Леонид Домнин
Описание: О том как добрый аистенок воспитал осиротевших птенцов.
За любезно предоставленную оцифровку большое спасибо persi-kot.
Релиз: | Семпл: http://sendfile.su/1412056
Тип релиза: Telesync
Контейнер: MPG
Видео: 720x576 (4:3) @ 768x576, 25.000 fps, MPEG-2 Video, ~6006 Kbps, 0.579 bits/pixel
Аудио: Русский, 48.0 KHz, AC3, 1 ch, 192 Kbps
MediaInfo
General
Complete name : Аистенок Кич 1971 Молдова-фильм.mpg
Format : MPEG-PS
File size : 426 MiB
Duration : 9 min 24 s
Overall bit rate mode : Variable
Overall bit rate : 6 323 kb/s
Video
ID : 224 (0xE0)
Format : MPEG Video
Format version : Version 2
Format profile : [email protected]
Format settings : BVOP
Format settings, BVOP : Yes
Format settings, Matrix : Default
Format settings, GOP : Variable
Format settings, picture structure : Frame
Duration : 9 min 24 s
Bit rate mode : Variable
Bit rate : 6 005 kb/s
Maximum bit rate : 9 400 kb/s
Width : 720 pixels
Height : 576 pixels
Display aspect ratio : 4:3
Frame rate : 25.000 FPS
Standard : PAL
Color space : YUV
Chroma subsampling : 4:2:0
Bit depth : 8 bits
Scan type : Interlaced
Scan order : Top Field First
Compression mode : Lossy
Bits/(Pixel*Frame) : 0.579
Time code of first frame : 00:00:00:00
Time code source : Group of pictures header
GOP, Open/Closed : Closed
Stream size : 404 MiB (95%)
Color primaries : BT.601 PAL
Transfer characteristics : BT.470 System B/G
Matrix coefficients : BT.470 System B/G
Audio
ID : 189 (0xBD)-128 (0x80)
Format : AC-3
Format/Info : Audio Coding 3
Muxing mode : DVD-Video
Duration : 9 min 24 s
Bit rate mode : Constant
Bit rate : 192 kb/s
Channel(s) : 1 channel
Channel positions : Front: C
Sampling rate : 48.0 kHz
Frame rate : 31.250 FPS (1536 SPF)
Bit depth : 16 bits
Compression mode : Lossy
Stream size : 12.9 MiB (3%)
Service kind : Complete Main
Скриншоты
Download
Для скачивания .torrent файлов необходима регистрация
Сайт не распространяет и не хранит электронные версии произведений, а лишь предоставляет доступ к создаваемому пользователями каталогу ссылок на торрент-файлы, которые содержат только списки хеш-сумм
[Профиль]  [ЛС] 
 
Ответить
Loading...
Error