Гномы в доме / Gnome Alone (Питер Лепениотис / Peter Lepeniotis) [2017, Канада, Великобритания, США, мультфильм, WEB-DLRip] [Локализованный видеоряд] Dub (iTunes)

Страницы:  1

Ответить
Автор
Сообщение

порошков

Помощник модератора

Стаж: 9 лет 3 месяца

Сообщений: 10383

порошков · 08-Апр-18 19:14 (1 месяц 16 дней назад)

Гномы в доме / Gnome Alone
Страна: Канада, Великобритания, США
Жанр: мультфильм
Год выпуска: 2017
Продолжительность: 01:21:46
Перевод: Профессиональный (дублированный) | iTunes
Субтитры: нет
Оригинальная аудиодорожка: нет
Режиссер:
Питер Лепениотис / Peter Lepeniotis
В ролях:
Бекки Джи, Джош Пек, Тара Стронг, Оливия Холт, Дэвид Кокнер, Джефф Данэм, Патрик Стамп, Нэш Гриер, Мэдисон Де Ла Гарза, Джордж Лопес
Описание:
Переезжая в старинный особняк, никто даже не подозревал, что большой дом скрывает «маленькие» тайны. Садовые гномы, живущие тут, веками защищали наш мир от злобных троггов. У людей не останется выбора - они должны будут присоединиться к великой битве...
Качество видео: WEB-DLRip
Формат видео: AVI
Видео: 688x368 (1.87:1), 25 fps, XviD build 73 ~1131 kbps avg, 0.18 bit/pixel
Аудио: 48 kHz, MPEG Layer 3, 2 ch, ~128.00 kbps avg
Сэмпл
MediaInfo

Код:
Format                      : AVI
Format/Info                 : Audio Video Interleave
File size                   : 742 MiB
Duration                    : 1 h 21 min
Overall bit rate            : 1 269 kb/s
Writing application         : VirtualDubMod 1.5.10.3 | www.virtualdub-fr.org || (build 2550/release)
Writing library             : VirtualDubMod build 2550/release
Video
ID                          : 0
Format                      : MPEG-4 Visual
Format profile              : Advanced [email protected]
Format settings             : BVOP1
Format settings, BVOP       : 1
Format settings, QPel       : No
Format settings, GMC        : No warppoints
Format settings, Matrix     : Default (H.263)
Codec ID                    : XVID
Codec ID/Hint               : XviD
Duration                    : 1 h 21 min
Bit rate                    : 1 132 kb/s
Width                       : 688 pixels
Height                      : 368 pixels
Display aspect ratio        : 1.85:1
Frame rate                  : 25.000 FPS
Color space                 : YUV
Chroma subsampling          : 4:2:0
Bit depth                   : 8 bits
Scan type                   : Progressive
Compression mode            : Lossy
Bits/(Pixel*Frame)          : 0.179
Stream size                 : 662 MiB (89%)
Writing library             : XviD 73
Audio
ID                          : 1
Format                      : MPEG Audio
Format version              : Version 1
Format profile              : Layer 3
Codec ID                    : 55
Codec ID/Hint               : MP3
Duration                    : 1 h 21 min
Bit rate mode               : Constant
Bit rate                    : 128 kb/s
Channel(s)                  : 2 channels
Sampling rate               : 48.0 kHz
Frame rate                  : 41.667 FPS (1152 SPF)
Compression mode            : Lossy
Stream size                 : 74.9 MiB (10%)
Alignment                   : Aligned on interleaves
Interleave, duration        : 40  ms (1.00 video frame)
Interleave, preload duratio : 504  ms
Writing library             : LAME3.99r
Encoding settings           : -m s -V 4 -q 2 -lowpass 17 -b 128
Скриншоты
Download
Для скачивания .torrent файлов необходима регистрация
Сайт не распространяет и не хранит электронные версии произведений, а лишь предоставляет доступ к создаваемому пользователями каталогу ссылок на торрент-файлы, которые содержат только списки хеш-сумм
[Профиль]  [ЛС] 

bot · 08-Апр-18 19:15 (спустя 33 сек.)

Тема была перенесена из форума Мастерская и оформление раздач (Torrents.Ru) в форум Иностранные мультфильмы
порошков
 
 
Ответить
Loading...
Error