Один в поле воин. Подвиг 41-го (Александр Ладнов) [2010, Документальный, война, история, WEBRip]

Страницы:  1

Ответить
Автор
Сообщение

Alf62

Стаж: 9 лет 11 месяцев

Сообщений: 2735

Alf62 · 16-Мар-18 16:58 (4 месяца 30 дней назад)

Один в поле воин. Подвиг 41-го
Дата/Год выпуска: 2010
Страна: Россия, Кинокомпания «Родина»
Жанр: Документальный, война, история
Продолжительность: 00:40:59
Перевод: Не требуется
Режиссер: Александр Ладнов
Телеканал: История
Описание: Лето 1941-го. Танковая армада немецкого генерала Гудериана рвется на Восток. Кажется, ничто не может ее остановить. И вдруг на мосту у деревни Сокольничи колонну встречает шквал артиллерийского огня. Загорается головной танк, за ним второй, третий. В панике автоматчики, идущие за броней. И только через три часа боя немцы обнаруживают: разгром учинила не батарея русских, а один-единственный солдат с пушкой. Из документов убитого они узнали, что зовут артиллериста Николай Сиротинин. Немецкие танкисты похоронили его с воинскими почестями. Очевидцами этих беспрецедентных похорон стали жители деревни, а позже, в 1943 году, был обнаружен дневник офицера вермахта с описанием подвига русского артиллериста. После войны ему поставили памятник, а писатель Константин Симонов ставил Сиротинина в ряд с такими героями, как Александр Матросов. В годы войны, во время отступления и контрнаступления наших войск, биографические сведения о Сиротинине были утеряны. Авторы фильма проводят свое расследование, собирая воспоминания очевидцев того боя, документы, находят родственников, по крупицам восстанавливают историю короткой жизни бойца.
Доп. информация: Авторство релиза - alf62

качество: WEBRip
формат: MKV
Видео: MPEG-4 AVC, 2250 Кбит/с, 768х576, (4:3), 25.000 fps
Аудио: Русский, AC3, 2 ch, 192 Кбит/с
MediaInfo
Общее
Уникальный идентификатор : 225369302964264399051767835487730020861 (0xA98C8C8586D519F1A0440EB8506231FD)
Полное имя : E:\Запись\Один в поле воин. Подвиг 41-го\Один.в.поле.воин.Подвиг.41-го.2010.AVC.WEBRip.alf62.mkv
Формат : Matroska
Версия формата : Version 2
Размер файла : 716 Мбайт
Продолжительность : 40 м.
Общий поток : 2443 Кбит/сек
Дата кодирования : UTC 2018-03-14 22:08:59
Программа кодирования : mkvmerge v7.8.0 ('River Man') 32bit built on Apr 3 2015 12:11:22
Библиотека кодирования : libebml v1.3.1 + libmatroska v1.4.2
Видео
Идентификатор : 1
Формат : AVC
Формат/Информация : Advanced Video Codec
Профиль формата : [email protected]
Параметр CABAC формата : Да
Параметр ReFrames формата : 8 кадров
Идентификатор кодека : V_MPEG4/ISO/AVC
Продолжительность : 40 м.
Битрейт : 2250 Кбит/сек
Ширина : 768 пикселей
Высота : 576 пикселей
Соотношение сторон : 4:3
Режим частоты кадров : Постоянный
Частота кадров : 25,000 кадров/сек
Цветовое пространство : YUV
Субдискретизация насыщенности : 4:2:0
Битовая глубина : 8 бит
Тип развёртки : Прогрессивная
Бит/(Пиксели*Кадры) : 0.203
Размер потока : 646 Мбайт (90%)
Библиотека кодирования : x264 core 146 r2538 121396c
Настройки программы : cabac=1 / ref=8 / deblock=1:-1:-1 / analyse=0x3:0x113 / me=umh / subme=10 / psy=1 / psy_rd=1.00:0.00 / mixed_ref=1 / me_range=32 / chroma_me=1 / trellis=2 / 8x8dct=1 / cqm=0 / deadzone=21,11 / fast_pskip=0 / chroma_qp_offset=-2 / threads=6 / lookahead_threads=1 / sliced_threads=0 / nr=0 / decimate=0 / interlaced=0 / bluray_compat=0 / constrained_intra=0 / bframes=8 / b_pyramid=2 / b_adapt=2 / b_bias=0 / direct=3 / weightb=1 / open_gop=0 / weightp=2 / keyint=250 / keyint_min=25 / scenecut=40 / intra_refresh=0 / rc_lookahead=40 / rc=2pass / mbtree=1 / bitrate=2250 / ratetol=1.0 / qcomp=0.60 / qpmin=10 / qpmax=51 / qpstep=4 / cplxblur=20.0 / qblur=0.5 / vbv_maxrate=14000 / vbv_bufsize=14000 / nal_hrd=none / filler=0 / ip_ratio=1.40 / aq=1:0.80
Default : Да
Forced : Нет
Аудио
Идентификатор : 2
Формат : AC-3
Формат/Информация : Audio Coding 3
Расширение режима : CM (complete main)
Параметр Endianness формата : Big
Идентификатор кодека : A_AC3
Продолжительность : 40 м.
Вид битрейта : Постоянный
Битрейт : 192 Кбит/сек
Каналы : 2 канала
Расположение каналов : Front: L R
Частота : 48,0 КГц
Битовая глубина : 16 бит
Метод сжатия : С потерями
Размер потока : 56,3 Мбайт (8%)
Default : Да
Forced : Нет
Скриншоты
Download
Для скачивания .torrent файлов необходима регистрация
Сайт не распространяет и не хранит электронные версии произведений, а лишь предоставляет доступ к создаваемому пользователями каталогу ссылок на торрент-файлы, которые содержат только списки хеш-сумм
[Профиль]  [ЛС] 

bot · 02-Май-18 17:40 (спустя 1 месяц 17 дней)

Тема была перенесена из форума Документальные фильмы и телепередачи в форум [Док] Вторая мировая война
SergeyJD
 
 
Ответить
Loading...
Error