«Владимир Высоцкий. И, улыбаясь, мне ломали крылья». Документальный фильм (Эфир от 27.01.2018) [2018, Документальный, Биография, HDTV 1080i] [1 канал HD]

Страницы:  1

Ответить
Автор
Сообщение

nokia5150

Стаж: 7 лет 6 месяцев

Сообщений: 730

nokia5150 · 27-Янв-18 15:37 (9 месяцев назад)

«Владимир Высоцкий. И, улыбаясь, мне ломали крылья».
Документальный фильм
Год выпуска: 2018
Страна: Россия
Жанр: Документальный, Биография
Продолжительность: 00:54:42
Перевод: Не требуется
Русские субтитры: нет
Режиссер: Александр Тяпов
Автор: Мироника Март
Голос за кадром: Народная артистка РСФСР Алла Демидова
Продюсеры: Наталья Шик
Производство: OOO «Медиа Конструктор»
Выпущено: Россия, ЗАО «Первый канал. Всемирная сеть».
Описание: Владимир Высоцкий. Поэт, композитор, артист… В этом году ему бы исполнилось 80 лет. Вся жизнь Высоцкого прошла под объективом камер и фотоаппаратов. Кажется, о нем известно все. Но есть фотографии и редкие кадры кинохроники, которые расскажут о Высоцком новые истории…
Друг поэта, режиссер Андрей Тарковский говорил о нем: «У меня такое впечатление, что он — один из немногих художников нашего времени, который сумел выразить свое время, как никто». Мало кому известно, что Высоцкий мог сыграть у Тарковского в фильме «Андрей Рублев». И даже прошел пробы. Но съемки с Высоцким так и не состоялись.
Наиболее известные портреты поэта сделал фотограф Валерий Плотников. 283 черно-белых, 7 цветных кадров Высоцкого, 8 фотосессий. Одну из них фотограф назвал «серенадной». Это было в 1975 году. Плотников вспоминает: «Марина подошла к Володе и начала его причесывать, и вдруг я увидел у него такое детское лицо... Хорошо, что у меня стоял свет, Марина не заслонила камеру, и я смог сделать уникальную фотографию». Плотников снимал Высоцкого для пластинки, которая так и не вышла при жизни поэта.
Сохранилась любительская пленка, на которой Высоцкий и Влади отдыхают в живописном месте. Эти кадры уже мелькали в фильмах о Высоцком, но где они были сняты и какие драматические истории стоят за съемкой, сделанной в Белоруссии — будет рассказано впервые. Влюбленную пару пригласил режиссер Виктор Туров. Факт, известный немногим: именно он открыл Высоцкого как автора песен для кино. На съемочной площадке фильма «Сыновья уходят в бой» Высоцкий за одну ночь написал три песни...
О Владимире Высоцком в России были сняты десятки документальных фильмов, но все — после его смерти. Большая часть съемок поэта при жизни сделана зарубежными кинематографистами. В Советском Союзе снять документальный фильм о Высоцком профессионалы не решались. Рискнул только один человек - студент ВГИКа Петр Солдатенков. Он вспоминал: «Документалистика просто шарахалась от Высоцкого. Я не понимал, почему». Он мечтал снять дипломный фильм о легендарном поэте, и Высоцкий пошел навстречу настырному студенту. Солдатенкову удалось сделать 4 съемки актера, в том числе записать 2 минуты последнего спектакля «Гамлет»...
В 2015 году Марина Влади распродала на аукционе в Париже вещи Высоцкого. Среди них посмертная маска поэта, семейная икона, фотографии и последнее стихотворение Высоцкого. Только благодаря поклоннику Высоцкого из Екатеринбурга раритет остался в России.
Вениамин Смехов вспоминает, как Высоцкий «заставил» его полюбить кино и сняться в фильме «Служили два товарища»: «Невозможно закончить разговор о нем. Вот Пушкина узнали через 200 лет. Высоцкому еще очень долго жить и когда-то наступит момент, когда о нем будет в какой-то достойной полноте рассказ...»
Молодые актеры Никита Ефремов, Артем Быстров, Аглая Шиловская и Евгений Антропов говорят о том, что значит Владимир Высоцкий для их поколения.
В фильме принимают участие: Марина Влади, вдова Владимира Высоцкого; Никита Высоцкий, сын Владимира Высоцкого; Вениамин Смехов, актер; Валерий Плотников, фотограф; Петр Солдатенков, режиссер; Александр Стернин, фотограф; Андрей Гавриловский, бизнесмен; Тамара Турова, вдова режиссера Виктора Турова; Наталья Адамович, дочь писателя Алеся Адамовича; Артем Быстров, актер; Никита Ефремов, актер; Евгений Антропов, актер; Аглая Шиловская, актриса.
Источник: Собственный рип.
Доп. информация: Рип чистый. Без посторонних надписей. Выкладывается как есть.

Качество: HDTV 1080i
Контейнер: TS
Видео кодек: H.264
Аудио кодек: MP2
Видео: AVC, 1920x1080 (16:9) 25.000 fps 7 622 Kbps, 0.147 bit/pixel
Аудио 1: MPEG Audio 48000Hz stereo 2 channels 192 Кбит/сек
Скриншоты
Отчёт MediaInfo / BDInfo
Общее
Идентификатор : 1 (0x1)
Полное имя : G:\Раздачи\Программы, передачи, шоу, спектакли\Документальный\«Владимир Высоцкий. И, улыбаясь, мне ломали крылья». Документальный фильм (2018, HDTV 1080i, Документальный, Биография, Эфир от 27.01.2018) (by Nokia5150).ts
Формат : MPEG-TS
Размер файла : 3,14 Гбайт
Продолжительность : 54 м. 41 с.
Режим общего битрейта : Переменный
Общий поток : 8222 Кбит/сек
Видео
Идентификатор : 8000 (0x1F40)
Идентификатор меню : 20105 (0x4E89)
Формат : AVC
Формат/Информация : Advanced Video Codec
Профиль формата : [email protected]
Настройки формата : CABAC / 4 Ref Frames
Параметр CABAC формата : Да
Параметр RefFrames формата : 4 кадра
Идентификатор кодека : 27
Продолжительность : 54 м. 41 с.
Битрейт : 7622 Кбит/сек
Ширина : 1920 пикселей
Высота : 1080 пикселей
Соотношение сторон : 16:9
Частота кадров : 25,000 кадров/сек
Стандарт вещания : Component
Цветовое пространство : YUV
Субдискретизация насыщенности : 4:2:0
Битовая глубина : 8 бит
Тип развёртки : Чересстрочная
Метод сохранения типа развёртки : Раздельные поля
Порядок развёртки : Верхнее поле первое
Бит/(Пиксели*Кадры) : 0.147
Размер потока : 2,91 Гбайт (93%)
Цветовой диапазон : Limited
Основные цвета : BT.709
Характеристики трансфера : BT.709
Коэффициенты матрицы : BT.709
Аудио
Идентификатор : 8001 (0x1F41)
Идентификатор меню : 20105 (0x4E89)
Формат : MPEG Audio
Версия формата : Version 1
Профиль формата : Layer 2
Идентификатор кодека : 3
Продолжительность : 54 м. 41 с.
Вид битрейта : Постоянный
Битрейт : 192 Кбит/сек
Каналы : 2 канала
Частота : 48,0 КГц
Метод сжатия : С потерями
Задержка видео : -120 мс.
Размер потока : 75,1 Мбайт (2%)
Язык : Russian

Download
Для скачивания .torrent файлов необходима регистрация
Сайт не распространяет и не хранит электронные версии произведений, а лишь предоставляет доступ к создаваемому пользователями каталогу ссылок на торрент-файлы, которые содержат только списки хеш-сумм
[Профиль]  [ЛС] 

eeevanka

Стаж: 2 года 8 месяцев

Сообщений: 197


eeevanka · 27-Янв-18 18:20 (спустя 2 часа 43 мин.)

[Цитировать] 

спасибо
[Профиль]  [ЛС] 
 
Ответить
Loading...
Error