Наша Маша и Волшебный орех (Егор Кончаловский) [2009, Россия, мультфильм, фэнтези, приключения, семейный, HDRip]

Страницы:  1

Ответить
Автор
Сообщение

Mordovian God

Стаж: 1 год 10 месяцев

Сообщений: 1117

Mordovian God · 20-Янв-18 19:27 (5 месяцев 4 дня назад, ред. 28-Янв-18 02:43)

Наша Маша и Волшебный орех
Страна: Россия
Жанр: мультфильм, фэнтези, приключения, семейный
Продолжительность: 01:16:28
Год выпуска: 2009
Русские субтитры: нет
Режиссёр: Егор Кончаловский
Роли озвучивали: Анна Снаткина
Всеволод Полищук
Тимур Родригез
Антон Пампушный
Владимир Зайцев
Оскар Кучера
Николай Кузнецов
Мария Аронова
Пётр Иващенко
Описание: Школьница Маша, как и многие из нас, считает, что настоящих друзей найти в нашем мире почти невозможно. Настоящая любовь — недостижимый идеал, и, вообще, чудес не бывает. Наверное, поэтому именно с ней под Новый год начинают происходить чудеса… Она находит волшебный орех Кракатук, который переносит девочку в невероятно красивую Сказочную страну. Там ее игрушки, Буратино и плюшевый медведь, становятся мальчишками Борькой и Михеем, а робот Гоша, подаренный родителями на Новый год, самым настоящим принцем.
Но власть в Сказочной стране захватили крысы, и правит ей коварный Император. Мало того, он со своими слугами, Ником и Диком, давно охотится за волшебным орехом. Ведь Кракатук способен выполнить любое желание, а крысиный повелитель мечтает управлять всей Вселенной. Он делает Маше предложение, от каких не отказываются… К чему приведут интриги Императора? Захочет ли Маша вернуться домой, ведь тогда принц в ее мире снова станет игрушкой? К кому попадет волшебный орех в новогоднюю полночь и получится ли загадать сокровенное желание?
Доп. информация: https://www.kinopoisk.ru/film/nasha-masha-i-volshebnyy-orekh-2009-259991/
Семпл: http://sendfile.su/1392823
Качество: HDRip найдено в сети
Формат: AVI
Видео: 720x400 (1.80:1), 23.976 fps, XviD build 64 ~2260 kbps avg, 0.33 bit/pixel
Аудио: 48 kHz, AC3 Dolby Digital, 3/2 (L,C,R,l,r) + LFE ch, ~448 kbps
Субтитры: отсутствуют
Подробные технические данные
General
Complete name : D:\Nasha_Masha_i_Volshebnij_Oreh_2009_HDRip_Original_Rus.avi
Format : AVI
Format/Info : Audio Video Interleave
File size : 1.45 GiB
Duration : 1h 16mn
Overall bit rate : 2 718 Kbps
Video
ID : 0
Format : MPEG-4 Visual
Format profile : Advanced [email protected]
Format settings, BVOP : 1
Format settings, QPel : No
Format settings, GMC : No warppoints
Format settings, Matrix : Custom
Codec ID : XVID
Codec ID/Hint : XviD
Duration : 1h 16mn
Bit rate : 2 261 Kbps
Width : 720 pixels
Height : 400 pixels
Display aspect ratio : 16:9
Frame rate : 23.976 fps
Color space : YUV
Chroma subsampling : 4:2:0
Bit depth : 8 bits
Scan type : Progressive
Compression mode : Lossy
Bits/(Pixel*Frame) : 0.327
Stream size : 1.21 GiB (83%)
Writing library : XviD 64
Audio
ID : 1
Format : AC-3
Format/Info : Audio Coding 3
Mode extension : CM (complete main)
Format settings, Endianness : Big
Codec ID : 2000
Duration : 1h 16mn
Bit rate mode : Constant
Bit rate : 448 Kbps
Channel count : 6 channels
Channel positions : Front: L C R, Side: L R, LFE
Sampling rate : 48.0 KHz
Bit depth : 16 bits
Compression mode : Lossy
Stream size : 245 MiB (16%)
Alignment : Split accross interleaves
Interleave, duration : 42 ms (1.00 video frame)
Interleave, preload duration : 500 ms
Download
Для скачивания .torrent файлов необходима регистрация
Сайт не распространяет и не хранит электронные версии произведений, а лишь предоставляет доступ к создаваемому пользователями каталогу ссылок на торрент-файлы, которые содержат только списки хеш-сумм
[Профиль]  [ЛС] 

rovac

Стаж: 9 лет 7 месяцев

Сообщений: 5


rovac · 15-Фев-18 22:57 (спустя 26 дней)

[Цитировать] 

Зачетные скриншоты, видно, что автор старался )))
[Профиль]  [ЛС] 

cyban

Стаж: 8 лет 7 месяцев

Сообщений: 11

cyban · 18-Фев-18 12:52 (спустя 2 дня 13 часов)

[Цитировать] 

Да уж.. сцена в душе очень содержательна.. Не маньячный ли мульт??
[Профиль]  [ЛС] 
 
Ответить
Loading...
Error