Король Шаман / Shaman King / Шаман Кинг [Special] [серия 4 из 5] [без хардсаба] [JAP, SUB] [2003, приключения, комедия, мистика, сёнэн, DVDRip]

Страницы:  1

Ответить
Автор
Сообщение

SOFCJ

Top Bonus 03* 1TB

Стаж: 10 лет 4 месяца

Сообщений: 1652

SOFCJ · 14-Янв-18 22:48 (5 месяцев 10 дней назад, ред. 04-Апр-18 09:50)

Король Шаман / Shaman King / Шаман Кинг

Год выпуска: 2003
Год выпуска на DVD: 24.07.2003
Страна: Япония
Жанр: Приключения, комедия, мистика, сёнэн
Тип аниме: Special
Продолжительность: только 4ый из 5 эп, 13 мин.
Перевод: Субтитры
Субтитры: ass, русские, (Автор перевода: Dez)
Хардсаб: Нет (субтитры в составе контейнера)
Режиссер: Мидзусима Сэйдзи
Снято по манге: Shaman King
Автор оригинала: Такэй Хироюки [мангака]
Описание:Спешал представляет из себя 5 коротких историй из жизни персонажей.
OVA выходила бонусом к музыкальным дискам сериала S.F.O.V (Shaman Fight of Vocal), позднее была издана на диске с 4 спецвыпуском.
Качество: DVDRip
Автор рипа: SOFCJ (скрипт обработки видео - Urotsuki)
Формат видео: MKV
Видео: x264, 768x576, 23.976 fps, 10bit, 2 605 kb/s
Аудио: AC3, 48000 Hz, 384 kbps, 2ch, язык: японский
Спецвыпуски:
01. The Document of Shaman Fight (ザ・ドキュメント オブ シャーマンファイト) (новогодний ТВ-спэшл, 23 мин.)
02. The Form That Friendship Takes (Yujo no Katachi/友情のかたち) (48 мин.)
03. The Form That Love Takes (Ai no Katachi/愛のかたち) (51 мин)
04. The Form That Sadness Takes ~Hao's Tribute~ (Kanashimi no Katachi ~Hao Densetsu~/哀しみのかたち~葉王伝説~) (28 мин.)
05. Special「S.F.O.V」(Shaman Fight Of Vocal) - пять коротких эпизодов в виде бонусов к CD (13 мин.)
Скриншоты
MediaInfo
Код:
Format                      : Matroska
Format version              : Version 4 / Version 2
File size                   : 290 MiB
Duration                    : 13 min 32 s
Overall bit rate            : 2 991 kb/s
Movie name                  : [SOFCJ-Raws] Shaman King OVA - Omake (DVDRip 768x576 x264 10bit AC3)
Encoded date                : UTC 2018-01-14 19:33:02
Writing application         : mkvmerge v8.3.0 ('Over the Horizon') 64bit
Writing library             : libebml v1.3.1 + libmatroska v1.4.2
Video
ID                          : 1
Format                      : AVC
Format/Info                 : Advanced Video Codec
Format profile              : High [email protected]
Format settings             : CABAC / 10 Ref Frames
Format settings, CABAC      : Yes
Format settings, ReFrames   : 10 frames
Codec ID                    : V_MPEG4/ISO/AVC
Duration                    : 13 min 32 s
Bit rate                    : 2 605 kb/s
Width                       : 768 pixels
Height                      : 576 pixels
Display aspect ratio        : 4:3
Frame rate mode             : Constant
Frame rate                  : 23.976 (24000/1001) FPS
Color space                 : YUV
Chroma subsampling          : 4:2:0
Bit depth                   : 10 bits
Scan type                   : Progressive
Bits/(Pixel*Frame)          : 0.246
Stream size                 : 252 MiB (87%)
Writing library             : x264 core 148 r2744kMod b97ae06
Encoding settings           : cabac=1 / ref=10 / deblock=1:-2:-2 / analyse=0x3:0x133 / me=umh / subme=10 / psy=1 / fade_compensate=0.00 / psy_rd=0.70:0.00 / mixed_ref=1 / me_range=24 / chroma_me=1 / trellis=2 / 8x8dct=1 / cqm=0 / deadzone=21,11 / fast_pskip=0 / chroma_qp_offset=-2 / threads=12 / lookahead_threads=2 / sliced_threads=0 / nr=0 / decimate=0 / interlaced=0 / bluray_compat=0 / constrained_intra=0 / bframes=8 / b_pyramid=2 / b_adapt=2 / b_bias=0 / direct=1 / weightb=1 / open_gop=0 / weightp=2 / keyint=250 / keyint_min=23 / scenecut=40 / intra_refresh=0 / rc=crf / mbtree=0 / crf=15.0000 / qcomp=0.60 / qpmin=5 / qpmax=40 / qpstep=4 / ip_ratio=1.40 / pb_ratio=1.30 / aq=1:1.00
Language                    : Japanese
Default                     : Yes
Forced                      : No
Audio
ID                          : 2
Format                      : AC-3
Format/Info                 : Audio Coding 3
Codec ID                    : A_AC3
Duration                    : 13 min 32 s
Bit rate mode               : Constant
Bit rate                    : 384 kb/s
Channel(s)                  : 2 channels
Channel positions           : Front: L R
Sampling rate               : 48.0 kHz
Frame rate                  : 31.250 FPS (1536 SPF)
Bit depth                   : 16 bits
Compression mode            : Lossy
Stream size                 : 37.2 MiB (13%)
Language                    : Japanese
Service kind                : Complete Main
Default                     : Yes
Forced                      : No
Text
ID                          : 3
Format                      : ASS
Codec ID                    : S_TEXT/ASS
Codec ID/Info               : Advanced Sub Station Alpha
Duration                    : 13 min 30 s
Bit rate                    : 138 b/s
Count of elements           : 160
Compression mode            : Lossless
Stream size                 : 13.7 KiB (0%)
Title                       : by Dez
Language                    : Russian
Default                     : Yes
Forced                      : No
[/pre]
Отличия от других раздач
http://rutracker.org/forum/viewtopic.php?t=2566145 - отсутствие хардсаба
Фото дисков
Download
Для скачивания .torrent файлов необходима регистрация
Сайт не распространяет и не хранит электронные версии произведений, а лишь предоставляет доступ к создаваемому пользователями каталогу ссылок на торрент-файлы, которые содержат только списки хеш-сумм
[Профиль]  [ЛС] 

bot · 14-Янв-18 22:55 (спустя 6 мин.)

Тема была перенесена из форума Оформление раздач (Группа "Top Seed") в форум Аниме (основной подраздел)
SOFCJ
 

Zаbr

Помощник модератора

Стаж: 4 года 3 месяца

Сообщений: 2935

Zаbr · 17-Фев-18 22:46 (спустя 1 месяц 2 дня)

[Цитировать] 

скрытый текст
Почему OVA? это же спешал, и судя по анидб 4ый, а не 5ый, когда The Form That Sadness Takes: Hao`s Tribute - пятый
[Профиль]  [ЛС] 

SOFCJ

Top Bonus 03* 1TB

Стаж: 10 лет 4 месяца

Сообщений: 1652

SOFCJ · 17-Фев-18 23:27 (спустя 40 мин., ред. 17-Фев-18 23:27)

[Цитировать] 

скрытый текст
Zаbr писал(а):
74820231Почему OVA? это же спешал, и судя по анидб 4ый, а не 5ый, когда The Form That Sadness Takes: Hao`s Tribute - пятый
анидб врёт, на дисках и в рекламе числится как овашка, и она шла допом на диске The Form That Sadness Takes: Hao`s Tribute, т.е. она была последней.
[Профиль]  [ЛС] 

Zаbr

Помощник модератора

Стаж: 4 года 3 месяца

Сообщений: 2935

Zаbr · 23-Апр-18 18:11 (спустя 2 месяца 5 дней)

[Цитировать] 

SOFCJ писал(а):
74606456Субтитры: ass, русские, (Автор перевода: Dez)
SOFCJ писал(а):
74606456Продолжительность: только 4ый из 5 эп, 13 мин.
SOFCJ писал(а):
74606456Аудио: AC3, 48000 Hz, 384 kbps, 2ch, язык: японский
дописал
[Профиль]  [ЛС] 
 
Ответить
Loading...
Error