[TR24][DVDA] Jane Monheit - Never Never Land - 2000 (Vocal Jazz)

Страницы:  1

Ответить
Автор
Сообщение

latimer

Стаж: 7 лет 9 месяцев

Сообщений: 312

latimer · 11-Янв-18 16:27 (8 месяцев назад)

Jane Monheit / Never Never Land
Формат записи/Источник записи: [TR24][DVDA]
Наличие водяных знаков: Нет
Год издания/переиздания диска: 2000
Жанр: Vocal Jazz
Издатель (лейбл): Silverline Records
Продолжительность: 00:46:10
Наличие сканов в содержимом раздачи: Только обложка альбома
Треклист:
01 Please Be Kind 3:44
Written-By – Sammy Cahn, Saul Chaplin
02 Detour Ahead 6:32
Songwriter – Herb EllisWritten-By – John Frigo, Lou Carter
03 More Than You Know 3:05
Written-By – Billy Rose, Edward Eliscu
04 Dindi 4:55
Songwriter – Ray GilbertWritten-By – Antonio Carlos Jobim
05 Save Your Love For Me 5:21
Written-By – Buddy Johnson
06 Never Let Me Go 4:01
Written-By – Jay Livingston, Ray Evans
07 My Foolish Heart 4:34
Written-By – Ned Washington, Victor Young
08 I Got It Bad (And That Ain't Good) 6:08
Written-By – Duke Ellington, Paul Francis Webster
09 Twisted 4:01
Written-By – Annie Ross, Wardell Gray
10 Never Never Land 3:56
Written-By – Adolph Green, Betty Comden, Jule Styne
Контейнер: FLAC (*.flac)
Тип рипа: tracks
Разрядность: 24/96
Формат: MLP(PPCM)
Количество каналов: 2.0
Другие дорожки звука: Ripped http://rutracker.org/forum/viewtopic.php?t=581406 with DVD Audio Extractor
Thx dimulyok
DR11
foobar2000 1.3.15 / Dynamic Range Meter 1.1.1
log date: 2018-01-11 13:36:12
--------------------------------------------------------------------------------
Analyzed: Jane Monheit / Never Never Land
--------------------------------------------------------------------------------
DR Peak RMS Duration Track
--------------------------------------------------------------------------------
DR10 -2.63 dB -15.37 dB 3:44 01-Please Be Kind
DR12 -4.69 dB -20.19 dB 6:32 02-Detour Ahead
DR11 -5.27 dB -20.29 dB 3:10 03-More Than You Know
DR13 -2.46 dB -20.15 dB 4:49 04-Dindi
DR11 -2.08 dB -16.63 dB 5:16 05-Save Your Love for Me
DR13 -4.79 dB -21.54 dB 4:02 06-Never Let Me Go
DR12 -3.82 dB -18.37 dB 4:31 07-My Foolish Heart
DR11 -4.56 dB -19.81 dB 6:08 08-I Got It Bad (And That Ain't Good)
DR10 -3.16 dB -15.21 dB 4:02 09-Twisted
DR11 -3.67 dB -19.50 dB 3:57 10-Never Never Land
--------------------------------------------------------------------------------
Number of tracks: 10
Official DR value: DR11
Samplerate: 96000 Hz
Channels: 2
Bits per sample: 24
Bitrate: 2343 kbps
Codec: FLAC
================================================================================
Источник (релизер): собственный рип
Состав
Alto Saxophone – Hank Crawford
Bass – Ron Carter
Drums – Lewis Nash
Guitar – Bucky Pizzarelli
Piano – Kenny Barron
Tenor Saxophone, Flute – David "Fathead" Newman
Vocals – Jane Monheit
Download
Для скачивания .torrent файлов необходима регистрация
Сайт не распространяет и не хранит электронные версии произведений, а лишь предоставляет доступ к создаваемому пользователями каталогу ссылок на торрент-файлы, которые содержат только списки хеш-сумм
[Профиль]  [ЛС] 
 
Ответить
Loading...
Error