[DVDA][BR] The Alan Parsons Project - Eye in the Sky (Anniversary Edition) - 1982 / 2017 (Rock, Pop)

Страницы:  1

Ответить
Автор
Сообщение

Willi1973

Стаж: 7 лет 8 месяцев

Сообщений: 125

Willi1973 · 19-Дек-17 18:42 (10 месяцев назад, ред. 19-Янв-18 18:50)

The Alan Parsons Project "Eye in the Sky"
(35th Anniversary Edition)


***
Формат записи/Источник записи: [DVDA][BR]
Наличие водяных знаков: Нет
Издание: 35th Anniversary Edition
Год издания/переиздания диска: 1982 / 2017
Жанр: Rock, Pop
Издатель (лейбл): Arista; Sony BMG Music Entertainment; Legacy
Продолжительность: 00:42:37
Наличие сканов в содержимом раздачи: Только обложка альбома
Треклист:
01. Sirius (1:57)
02. Eye In The Sky (4:36)
03. Children Of The Moon (4:51)
04. Gemini (2:10)
05. Silence And I (7:24)
06. You're Gonna Get Your Fingers Burned (4:22)
07. Psychobabble (4:53)
08. Mammagamma (3:34)
09. Step By Step (3:55)
10. Old And Wise (4:54)
Контейнер: ISO (*.iso)
Тип рипа: image
Разрядность: 24/96 (5.1) | 24/192 (STEREO)
Формат: MLP(PPCM)
Количество каналов: 5.1 & STEREO
Лог проверки качества 5.1
foobar2000 1.3.14 / Dynamic Range Meter 1.1.1
log date: 2017-12-19 19:07:35
--------------------------------------------------------------------------------
Analyzed: The Alan Parsons Project / Eye In The Sky (35th Anniversary)
--------------------------------------------------------------------------------
DR Peak RMS Duration Track
--------------------------------------------------------------------------------
DR12 -0.63 dB -18.89 dB 1:57 01-Sirius
DR14 -0.59 dB -20.84 dB 4:36 02-Eye In The Sky
DR14 0.00 dB -19.68 dB 4:51 03-Children Of The Moon
DR12 -4.98 dB -22.61 dB 2:10 04-Gemini
DR13 0.00 dB -18.92 dB 7:24 05-Silence And I
DR12 -2.25 dB -19.02 dB 4:22 06-You're Gonna Get Your Fingers Burned
DR14 -0.07 dB -20.30 dB 4:53 07-Psychobabble
DR13 -1.35 dB -19.75 dB 3:34 08-Mammagamma
DR13 0.00 dB -18.85 dB 3:55 09-Step By Step
DR14 0.00 dB -21.26 dB 4:54 10-Old And Wise
--------------------------------------------------------------------------------
Number of tracks: 10
Official DR value: DR13
Samplerate: 96000 Hz
Channels: 6
Bits per sample: 24
Bitrate: 13824 kbps
Codec: MLP
================================================================================
Лог проверки качества STEREO
foobar2000 1.3.14 / Dynamic Range Meter 1.1.1
log date: 2017-12-19 19:41:29
--------------------------------------------------------------------------------
Analyzed: The Alan Parsons Project / Eye In The Sky (35th Anniversary) stereo
--------------------------------------------------------------------------------
DR Peak RMS Duration Track
--------------------------------------------------------------------------------
DR12 -0.55 dB -15.43 dB 1:57 01-Sirius
DR11 -0.51 dB -14.29 dB 4:36 02-Eye In The Sky
DR10 -0.51 dB -13.48 dB 4:51 03-Children Of The Moon
DR11 -2.26 dB -16.88 dB 2:10 04-Gemini
DR11 -0.51 dB -14.46 dB 7:24 05-Silence And I
DR11 -0.51 dB -13.06 dB 4:22 06-You're Gonna Get Your Fingers Burned
DR12 -0.51 dB -15.75 dB 4:53 07-Psychobabble
DR12 -0.51 dB -14.05 dB 3:34 08-Mammagamma
DR8 -0.51 dB -9.99 dB 3:55 09-Step By Step
DR11 -0.51 dB -14.93 dB 4:54 10-Old And Wise
--------------------------------------------------------------------------------
Number of tracks: 10
Official DR value: DR11
Samplerate: 192000 Hz
Channels: 2
Bits per sample: 24
Bitrate: 9216 kbps
Codec: MLP
================================================================================

Источник (релизер):
Download
Для скачивания .torrent файлов необходима регистрация
Сайт не распространяет и не хранит электронные версии произведений, а лишь предоставляет доступ к создаваемому пользователями каталогу ссылок на торрент-файлы, которые содержат только списки хеш-сумм
[Профиль]  [ЛС] 

musiclover123

Стаж: 11 месяцев

Сообщений: 11


musiclover123 · 19-Дек-17 19:05 (спустя 23 мин.)

[Цитировать] 

Thank you Willi1973.
Some more scans would be very appreciated.
[Профиль]  [ЛС] 

Willi1973

Стаж: 7 лет 8 месяцев

Сообщений: 125

Willi1973 · 19-Дек-17 19:09 (спустя 4 мин.)

[Цитировать] 

musiclover123 писал(а):
74448953Some more scans would be very appreciated
I'm sorry, but I can not help with scans.
[Профиль]  [ЛС] 

nikcnick

Стаж: 7 лет 8 месяцев

Сообщений: 8


nikcnick · 20-Дек-17 08:50 (спустя 13 часов)

[Цитировать] 

Спасибо за заботу о владельцах DVD-A players!
[Профиль]  [ЛС] 

gabibbo

Стаж: 4 года 2 месяца

Сообщений: 164

gabibbo · 24-Июн-18 18:50 (спустя 6 месяцев)

[Цитировать] 

Please, if anyone could upload the 2.0 24/192 (even 24/96 is enough) in FLAC format apart... it would be great and I/we would be very grateful.
Thanks a lot.
Cheers
[Профиль]  [ЛС] 

Ramzes_4

Стаж: 5 лет 9 месяцев

Сообщений: 92

Ramzes_4 · 06-Сен-18 14:05 (спустя 2 месяца 11 дней)

[Цитировать] 

Не понятно для чего в заголовке значится [BR]??? Если формат раздачи DVD-A,а исходник не блу-рэй. Опять же откуда взято содержание и как сделан апмикс 5.1 ???
[Профиль]  [ЛС] 
 
Ответить
Loading...
Error