[TR24][OF] Chopin — Concerto For Piano And Orchestra Nos. 1, 2; Rondo, op. 73; Fantaisie-impromptu, op. 66; Mompou — Variations On A Theme By Chopin (Даниил Трифонов, Сергей Бабаян, Mahler Chamber Orchestra, Михаил Плетнёв) 2017 (Classical)

Страницы:  1

Ответить
Автор
Сообщение

AleksandrPS

Стаж: 3 года 1 месяц

Сообщений: 759

AleksandrPS · 07-Окт-17 20:20 (1 год 2 месяца назад, ред. 08-Окт-17 09:13)

Chopin Evocations
DG · No. 4797518 · 2017 · web · trailer
FLAC · 24bit · 96kHz · 02:20:01 · booklet
Daniil Trifonov.....................piano
Sergei Babayan...................piano 2*
Mahler Chamber Orchestra.................
Mikhail Pletnev.................conductor
Liszt · Rachmaninov · Preghiera · The Carnegie Recital
Tracklist
01-03. Chopin — Concerto For Piano And Orchestra No. 2 In F Minor, Op. 21
04-11. Chopin — Variations On "La Ci Darem La Mano", Op. 2

12. Schumann — Carnaval, Op.9: 12. Chopin
13. Grieg — Moods, Op.73-5: Étude "Hommage À Chopin"
14. Barber — Nocturne, Op. 33
15. Tchaikovsky — 18 Pieces, Op. 72: 15. Un Poco Di Chopin
16. Chopin — Rondo In C Major, Op.73*
17-19. Chopin — Concerto For Piano And Orchestra No. 1 In E Minor, Op. 11
20-32. Mompou — Variations On A Theme By Chopin

33. Chopin — Fantaisie-impromptu In C Sharp Minor, Op. 66
log
foobar2000 1.3.15 / Dynamic Range Meter 1.1.1
log date: 2017-10-07 21:04:59
--------------------------------------------------------------------------------
Analyzed: Daniil Trifonov / Chopin Evocations
--------------------------------------------------------------------------------
DR Peak RMS Duration Track
--------------------------------------------------------------------------------
DR13 -0.48 dB -18.85 dB 15:41 01-Chopin — Concerto For Piano And Orchestra No. 2 In F Minor, Op. 21: 1. Maestoso
DR14 -4.17 dB -24.51 dB 10:20 02-Chopin — Concerto For Piano And Orchestra No. 2 In F Minor, Op. 21: 2. Larghetto
DR14 -0.48 dB -19.16 dB 8:50 03-Chopin — Concerto For Piano And Orchestra No. 2 In F Minor, Op. 21: 3. Allegro Vivace
DR13 -3.26 dB -22.57 dB 5:05 04-Chopin — Variations On "La Ci Darem La Mano", Op. 2: Introduction
DR14 -2.24 dB -23.07 dB 1:34 05-Chopin — Variations On "La Ci Darem La Mano", Op. 2: Thema. Allegretto
DR11 -3.25 dB -19.29 dB 0:55 06-Chopin — Variations On "La Ci Darem La Mano", Op. 2: Variation 1. Brillante
DR11 -1.39 dB -17.84 dB 0:56 07-Chopin — Variations On "La Ci Darem La Mano", Op. 2: Variation 2. Veloce, Ma Accuratamente
DR12 -5.36 dB -22.51 dB 1:46 08-Chopin — Variations On "La Ci Darem La Mano", Op. 2: Variation 3. Sempre Sostenuto
DR10 -1.54 dB -18.03 dB 1:11 09-Chopin — Variations On "La Ci Darem La Mano", Op. 2: Variation 4. Con Bravura
DR14 -1.97 dB -24.06 dB 2:07 10-Chopin — Variations On "La Ci Darem La Mano", Op. 2: Variation 5. Adagio
DR11 -2.10 dB -16.98 dB 3:30 11-Chopin — Variations On "La Ci Darem La Mano", Op. 2: Coda. Alla Polacca
DR12 -11.98 dB -29.13 dB 1:30 12-Schumann — Carnaval, Op.9: 12. Chopin
DR11 -2.47 dB -17.28 dB 1:51 13-Grieg — Moods, Op.73-5: Étude "Hommage À Chopin"
DR13 -1.74 dB -21.19 dB 4:10 14-Barber — Nocturne, Op. 33
DR13 -1.11 dB -22.26 dB 2:52 15-Tchaikovsky — 18 Pieces, Op. 72: 15. Un Poco Di Chopin
DR13 -2.94 dB -21.13 dB 8:46 16-Chopin — Rondo In C Major, Op.73
DR13 -0.48 dB -18.96 dB 21:59 17-Chopin — Concerto For Piano And Orchestra No. 1 In E Minor, Op. 11: 1. Allegro Maestoso
DR15 -4.10 dB -24.85 dB 11:06 18-Chopin — Concerto For Piano And Orchestra No. 1 In E Minor, Op. 11: 2. Romance. Larghetto
DR14 -0.48 dB -19.72 dB 9:42 19-Chopin — Concerto For Piano And Orchestra No. 1 In E Minor, Op. 11: 3. Rondo. Vivace
DR13 -8.28 dB -30.55 dB 0:48 20-Mompou — Variations On A Theme By Chopin: Theme. Andantino
DR10 -10.85 dB -32.40 dB 1:01 21-Mompou — Variations On A Theme By Chopin: Variation 1. Tranquillo E Molto Amabile
DR12 -12.96 dB -29.29 dB 0:46 22-Mompou — Variations On A Theme By Chopin: Variation 2. Gracioso
DR10 -16.15 dB -32.22 dB 0:56 23-Mompou — Variations On A Theme By Chopin: Variation 3. Para La Mano Iquierda. Lento
DR12 -6.15 dB -24.25 dB 1:26 24-Mompou — Variations On A Theme By Chopin: Variation 4. Espressivo
DR12 -4.67 dB -20.63 dB 1:02 25-Mompou — Variations On A Theme By Chopin: Variation 5. Tempo Di Mazurka
DR13 -4.13 dB -23.40 dB 1:36 26-Mompou — Variations On A Theme By Chopin: Variation 6. Recitativo
DR11 -6.77 dB -22.84 dB 0:39 27-Mompou — Variations On A Theme By Chopin: Variation 7. Allegro Leggiero
DR15 -2.11 dB -26.03 dB 2:38 28-Mompou — Variations On A Theme By Chopin: Variation 8. Andante Dolce E Espressivo
DR12 -5.66 dB -24.61 dB 1:48 29-Mompou — Variations On A Theme By Chopin: Variation 9. Valse
DR14 -13.81 dB -34.14 dB 3:05 30-Mompou — Variations On A Theme By Chopin: Variation 10. Évocation. Cantabile Molto Espressivo
DR11 -2.96 dB -18.96 dB 1:30 31-Mompou — Variations On A Theme By Chopin: Variation 11. Lento Dolce E Legato
DR12 -1.07 dB -18.53 dB 3:19 32-Mompou — Variations On A Theme By Chopin: Variation 12. Galope Y Epílogo
DR12 -1.51 dB -20.79 dB 5:36 33-Chopin — Fantaisie-impromptu In C Sharp Minor, Op. 66
--------------------------------------------------------------------------------
Number of tracks: 33
Official DR value: DR12
Samplerate: 96000 Hz
Channels: 2
Bits per sample: 24
Bitrate: 2259 kbps
Codec: FLAC
================================================================================
range
01 Chopin — Concerto For Piano And Orchestra No. 2 In F Minor, Op. 21 1. Maestoso.flac
Download
Для скачивания .torrent файлов необходима регистрация
Сайт не распространяет и не хранит электронные версии произведений, а лишь предоставляет доступ к создаваемому пользователями каталогу ссылок на торрент-файлы, которые содержат только списки хеш-сумм
[Профиль]  [ЛС] 

WallaceAndGromit

Стаж: 6 лет 2 месяца

Сообщений: 261

WallaceAndGromit · 07-Окт-17 22:53 (спустя 2 часа 33 мин., ред. 07-Окт-17 22:53)

[Цитировать] 

Спасибо! Интересно будет послушать его новый альбом. Только что на сайте DG увидел анонс, а релиз уже на Ру-трекере!
Кстати, не знал, что у Шопена есть сочинения для двух ф-но.
[Профиль]  [ЛС] 

AleksandrPS

Стаж: 3 года 1 месяц

Сообщений: 759

AleksandrPS · 07-Окт-17 23:53 (спустя 59 мин.)

[Цитировать] 

WallaceAndGromit
По мне, тут всё блестяще: исполнение, программа, звукорежиссура. Такой релиз заслуживает награды. Данила высоко держит планку.
Концерты, кстати, в аранжировке Михаила Плетнёва.
[Профиль]  [ЛС] 

ifenixxz

Стаж: 2 года 1 месяц

Сообщений: 238


ifenixxz · 19-Дек-17 12:28 (спустя 2 месяца 11 дней)

[Цитировать] 

AleksandrPS
Большое спасибо за этот релиз, с удовольствием начал свое прослушивание.
рекомендую всем приобрести в коллекцию
[Профиль]  [ЛС] 

EvgenyO

Стаж: 9 лет 8 месяцев

Сообщений: 11

EvgenyO · 25-Янв-18 23:04 (спустя 1 месяц 6 дней)

[Цитировать] 

У меня одного звук с призвуком и перегрузами? и на пк и на Pioneer 989AVi
[Профиль]  [ЛС] 

mckennascole

Стаж: 8 лет 7 месяцев

Сообщений: 11


mckennascole · 10-Июл-18 14:17 (спустя 5 месяцев 15 дней)

[Цитировать] 

EvgenyO писал(а):
74673869У меня одного звук с призвуком и перегрузами? и на пк и на Pioneer 989AVi
Is there a mobile phone interference beginning at 00:54-00:56 of track 18 and then again at 01:26-01:31?
[Профиль]  [ЛС] 

lightglams

Стаж: 6 лет 7 месяцев

Сообщений: 233

lightglams · 04-Окт-18 18:17 (спустя 2 месяца 25 дней)

[Цитировать] 

Приятная музыка
[Профиль]  [ЛС] 
 
Ответить
Loading...
Error