(Dance-Pop/Soul/Electronic) Arilena Ara - iTunes Collection 2015-2018 (1 EP, 9 Singles) - 2015-2018, AAC [WEB] (tracks), VBR 256 kbps [+Video, WEB-DL, 480p]

Страницы:  1

Ответить
Автор
Сообщение

АLЕXIS

Top Seed 02* 80r

Стаж: 8 лет 11 месяцев

Сообщений: 355

АLЕXIS · 29-Авг-17 23:02 (1 год 3 месяца назад, ред. 07-Май-18 00:30)

Arilena Ara / iTunes Collection 2015-2018 (1 EP, 9 Singles) Жанр: Dance-Pop/Soul/Electronic | Страна: Albania | Год издания: 2015-2018 | Издатель (лейбл): ALBVISION/Effective Records/KDDK | Аудио кодек: AAC | Тип рипа: tracks | Битрейт аудио: VBR 256 kbps | Продолжительность: 50:15 | Источник: | Вшитые тексты: добавлены | Наличие сканов в содержимом раздачи: нет
EP's
2017 - I'm Sorry - EP
01 I'm Sorry
02 I'm Sorry (Gon Haziri & Bess Radio Mix)
03 I'm Sorry (Gon Haziri & Bess Remix) [Extended Lyrics]
04 I'm Sorry (Beverly Pills Remix)
Singles
2015 - Vegim - Single
01 Vegim
2017 - Nëntori - Single
01 Nëntori
2017 - Nëntori (Beverly Pills Remix) - Single
01 Nëntori (Beverly Pills Remix)
2017 - Nëntori (Bess Remix) - Single
01 Nëntori (Bess Remix)
02 Nëntori (Bess Remix)
Music Video - Nëntori (Bess Remix)
Качество: WEB-DL
Продолжительность: 02:55
Формат: MPEG-4 (контейнер m4v)
Видео: H.264, 720 x 356 px (2,40:1), 25,000 fps, 1519 kbps, AVC ([email protected]) (2 Ref Frames)
Аудио: Английский, 256 Кбит/сек, 48,0 КГц, 2 канала, AAC (LC)
MediaInfo
Полное имя : D:\Apple Music\Arilena Ara\Singles\2017 - Nëntori (Bess Remix) - Single\02 Nëntori (Bess Remix).m4v
Формат : MPEG-4
Идентификатор кодека : M4V (M4V /mp42/isom)
Размер файла : 38,1 Мбайт
Продолжительность : 2 м. 55 с.
Режим общего битрейта : Переменный
Общий поток : 1826 Кбит/сек
Название фильма : Nëntori (Bess Remix)
Альбом : Nëntori (Bess Remix) - Single
Альбом/Исполнитель : Arilena Ara
Часть/Положение : 1
Часть/Всего : 1
Трек/Положение : 2
Трек/Всего : 2
Исполнитель : Arilena Ara
Исполнитель/Сортировать по : Arilena Ara
Жанр : Танцевальная музыка
Тип содержимого : Music Video
Дата записи : UTC 2017-01-24 08:00:00
Дата кодирования : UTC 2017-05-12 09:00:16
Дата пометки : UTC 2017-05-12 09:00:16
Авторское право : ℗ 2017 Effective Records
Обложка : Yes
Оценка : None
AppleStoreAccount : [email protected]
AppleStoreCatalogID : 1227633367
AlbumTitleID : 1062883501
GenreID : 1617
AppleStoreCountry : Russia
PurchaseDate : 2017-11-10 23:58:23
Vendor : IRICOMUSLTD:vendor_id:5056132010153_RUA1D1706036
Flavour : 8:480p
ContentRating : ||0|
Title/Sort : Nëntori (Bess Remix)
Видео
Идентификатор : 1
Формат : AVC
Формат/Информация : Advanced Video Codec
Профиль формата : [email protected]
Настройки формата : 2 Ref Frames
Параметр CABAC формата : Нет
Параметр RefFrames формата : 2 кадра
Идентификатор кодека : avc1
Идентификатор кодека/Информация : Advanced Video Coding
Продолжительность : 2 м. 55 с.
Битрейт : 1519 Кбит/сек
Ширина : 720 пикселей
Высота : 356 пикселей
Соотношение сторон : 2,40:1
Режим частоты кадров : Постоянный
Частота кадров : 25,000 кадров/сек
Цветовое пространство : YUV
Субдискретизация насыщенности : 4:2:0
Битовая глубина : 8 бит
Тип развёртки : Прогрессивная
Бит/(Пиксели*Кадры) : 0.237
Размер потока : 31,7 Мбайт (83%)
Заголовок : Core Media Video
Язык : English
Дата кодирования : UTC 2017-05-12 09:00:16
Дата пометки : UTC 2017-05-12 09:00:16
Цветовой диапазон : Limited
Основные цвета : BT.709
Характеристики трансфера : BT.709
Коэффициенты матрицы : BT.709
Аудио
Идентификатор : 2
Формат : AAC
Формат/Информация : Advanced Audio Codec
Профиль формата : LC
Идентификатор кодека : mp4a-40-2
Продолжительность : 2 м. 55 с.
Продолжительность оригинала : 2 м. 55 с.
Вид битрейта : Переменный
Битрейт : 256 Кбит/сек
Максимальный битрейт : 309 Кбит/сек
Каналы : 2 канала
Расположение каналов : Front: L R
Частота : 48,0 КГц
Частота кадров : 46,875 кадров/сек (1024 SPF)
Метод сжатия : С потерями
Размер потока : 5,29 Мбайт (14%)
Размер потока оригинала : 5,29 Мбайт (14%)
Заголовок : Core Media Audio
Язык : English
Дата кодирования : UTC 2017-05-12 09:00:16
Дата пометки : UTC 2017-05-12 09:00:16
2017 - Snow in December - Single
01 Snow in December
2017 - Sliver & Gold - Single
01 Sliver & Gold
2018 - Silver & Gold (Going Deeper Remix) - Single
01 Silver & Gold (Going Deeper Remix)
2018 - Nëntori (Dj Dark & MD Dj Remix) - Single
01 Nëntori (Dj Dark & MD Dj Remix)
02 Nëntori (Dj Dark & MD Dj Remix Extended)
2018 - Last Train to Paris (Radio Edit) [feat. Arilena Ara] - Single
01 Last Train to Paris (feat. Arilena Ara) [Radio Edit]
ВНИМАНИЕ! Раздача обновлена, добавлено 2 синглаArilena Ara - Nëntori (Dj Dark & MD Dj Remix) - Single, и KDDK - Last Train to Paris (Radio Edit) [feat. Arilena Ara] - Single ВНИМАНИЕ! РАЗДАЧА БУДЕТ ОБНОВЛЯТЬСЯ ПО МЕРЕ ВЫПУСКА НОВЫХ ИЗДАНИЙ
Download
Для скачивания .torrent файлов необходима регистрация
Сайт не распространяет и не хранит электронные версии произведений, а лишь предоставляет доступ к создаваемому пользователями каталогу ссылок на торрент-файлы, которые содержат только списки хеш-сумм
[Профиль]  [ЛС] 

АLЕXIS

Top Seed 02* 80r

Стаж: 8 лет 11 месяцев

Сообщений: 355

АLЕXIS · 29-Авг-17 23:05 (спустя 3 мин.)

[Цитировать] 

[Профиль]  [ЛС] 

vesh111

Стаж: 5 лет 9 месяцев

Сообщений: 7

vesh111 · 19-Окт-17 17:27 (спустя 1 месяц 20 дней)

[Цитировать] 

А ремиксов nëntori нету типа такого?
https://itunes.apple.com/ua/album/n%C3%ABntori-beverly-pills-remix-single/id1202319835
[Профиль]  [ЛС] 

АLЕXIS

Top Seed 02* 80r

Стаж: 8 лет 11 месяцев

Сообщений: 355

АLЕXIS · 20-Окт-17 02:59 (спустя 9 часов)

[Цитировать] 

Цитата:
А ремиксов nëntori нету типа такого?
Будут в скором времени и ремиксы
[Профиль]  [ЛС] 

Devlan

Стаж: 8 лет 6 месяцев

Сообщений: 68

Devlan · 08-Ноя-17 04:49 (спустя 19 дней, ред. 08-Ноя-17 04:49)

[Цитировать] 

Jeff1 большое вам спасибо. Очень надеюсь, что вы периодически будете пополнять коллекцию, этой замечательной певицы.
Успехов вам. И ещё раз большое спасибо.
[Профиль]  [ЛС] 

АLЕXIS

Top Seed 02* 80r

Стаж: 8 лет 11 месяцев

Сообщений: 355

АLЕXIS · 08-Ноя-17 17:37 (спустя 12 часов)

[Цитировать] 

Цитата:
Очень надеюсь, что вы периодически будете пополнять коллекцию, этой замечательной певицы.
Можете не сомневаться, обязательно буду! И спасибо Вам большое за поддержку.
[Профиль]  [ЛС] 

пенополеуритан

Стаж: 9 лет 1 месяц

Сообщений: 154

пенополеуритан · 28-Авг-18 23:16 (спустя 9 месяцев, ред. 02-Окт-18 15:35)

[Цитировать] 

Качество конечно... Но в любом случае спасибо.
[Профиль]  [ЛС] 

ka81

Стаж: 12 лет 4 месяца

Сообщений: 1049

ka81 · 08-Сен-18 18:13 (спустя 10 дней)

[Цитировать] 

В mp3 320 никто не граббил случаем?
[Профиль]  [ЛС] 
 
Ответить
Loading...
Error