[DVDA][LP] Modern Talking 1-6 Albums LP - 1985-1987 LPCM 24/192 (Pop)

Страницы:  1

Ответить
Автор
Сообщение

csantipa

Стаж: 10 лет 4 месяца

Сообщений: 272


csantipa · 11-Июл-17 12:25 (1 год назад, ред. 05-Апр-18 20:40)

Modern Talking /1-6 Albums
Формат записи/Источник записи: [DVDA][LP]
Год издания/переиздания диска: 1985,1986,1987
Жанр: Pop
Лейбл: Victor, Hansa, Mega Records
Страна-производитель: Japan, Scandinavia
Наличие водяных знаков: Нет
Продолжительность:
Наличие сканов в содержимом раздачи: Да (сканы)
Modern Talking_The 1st Album -1985 (Victor, VIL-6191, Japan)
Формат записи/Источник записи:[DVDA][LP]
Год издания/переиздания диска: 1985
Жанр: pop
Лейбл: Victor, VIL-6191
Страна-производитель: Japan
Наличие водяных знаков: Нет
Продолжительность: 00:40:06
Наличие сканов в содержимом раздачи: Да (сканы)
Треклист:
01.You're My Heart, You're My Soul
02.You Can Win If You Want
03.There's Too Much Blue In Missing You
04.Diamonds Never Made A Lady
05.The Night Is Yours - The Night Is Mine
06.Do You Wanna
07.Lucky Guy
08.One In A Million
09.Bells Of Paris
Лог проверки качества: 2.0 - DR11
foobar2000 1.1.10 / Dynamic Range Meter 1.1.1
log date: 2017-07-11 11:19:31
--------------------------------------------------------------------------------
Analyzed: DVDA_Modern Talking_The 1st Album -1985 (Victor, VIL-6191, Japan)
--------------------------------------------------------------------------------
DR Peak RMS Duration Track
--------------------------------------------------------------------------------
DR12 -1.79 dB -14.78 dB 5:40 01-You're My Heart, You're My Soul
DR11 -1.20 dB -13.43 dB 3:52 02-You Can Win If You Want
DR11 -1.10 dB -14.29 dB 4:45 03-There's Too Much Blue In Missing You
DR10 -1.37 dB -13.58 dB 4:09 04-Diamonds Never Made A Lady
DR10 -2.76 dB -13.76 dB 5:34 05-The Night Is Yours - The Night Is Mine
DR12 -1.52 dB -15.08 dB 4:26 06-Do You Wanna
DR11 -1.85 dB -14.74 dB 3:34 07-Lucky Guy
DR11 -3.02 dB -15.18 dB 3:46 08-One In A Million
DR12 -4.34 dB -17.62 dB 4:19 09-Bells Of Paris
--------------------------------------------------------------------------------
Number of tracks: 9
Official DR value: DR11
Samplerate: 192000 Hz
Channels: 2
Bits per sample: 24
Bitrate: 9216 kbps
Codec: PCM
================================================================================
Modern Talking_Let's Talk About Love - The 2nd Album - 1985 (Victor, VIL-28023, Japan)
Формат записи/Источник записи:[DVDA][LP]
Год издания/переиздания диска: 1985
Жанр: pop
Лейбл: Victor, VIL-28023
Страна-производитель: Japan
Наличие водяных знаков: Нет
Продолжительность: 00:38:56
Наличие сканов в содержимом раздачи: Да (сканы)
Треклист:
01.Cheri Cheri Lady
02.With A Little Love
03.Wild Wild Water
04.You're The Lady On My Heart
05.Just Like An Angel
06.Heaven Will Know
07.Love Don't Live Here Anymore
08.Why Did You Do It Just Tonight
09.Don't Give Up
10.Let's Talk About Love
Лог проверки качества: 2.0 - DR11
foobar2000 1.1.10 / Dynamic Range Meter 1.1.1
log date: 2017-07-23 17:15:25
--------------------------------------------------------------------------------
Analyzed: Modern Talking / Let's Talk About Love - The 2nd Album (Victor, VIL-28023, Japan)
--------------------------------------------------------------------------------
DR Peak RMS Duration Track
--------------------------------------------------------------------------------
DR10 -1.14 dB -12.64 dB 3:52 01-Cheri Cheri Lady
DR10 -1.00 dB -12.83 dB 3:38 02-With A Little Love
DR11 -1.02 dB -13.32 dB 4:23 03-Wild Wild Water
DR11 -1.22 dB -13.78 dB 3:24 04-You're The Lady On My Heart
DR10 -1.94 dB -13.36 dB 3:14 05-Just Like An Angel
DR11 -1.74 dB -13.79 dB 4:06 06-Heaven Will Know
DR11 -1.92 dB -14.52 dB 4:26 07-Love Don't Live Here Anymore
DR11 -1.77 dB -15.59 dB 4:28 08-Why Did You Do It Just Tonight
DR11 -1.66 dB -14.52 dB 3:24 09-Don't Give Up
DR10 -2.12 dB -13.28 dB 3:55 10-Let's Talk About Love
--------------------------------------------------------------------------------
Number of tracks: 10
Official DR value: DR11
Samplerate: 192000 Hz
Channels: 2
Bits per sample: 24
Bitrate: 9216 kbps
Codec: PCM
================================================================================
Modern Talking_Ready For Romance - The 3rd Album - 1986 (Victor, VIL-28051, Japan)
Формат записи/Источник записи:[DVDA][LP]
Год издания/переиздания диска: 1986
Жанр: pop
Лейбл: Victor, VIL-28051
Страна-производитель: Japan
Наличие водяных знаков: Нет
Продолжительность: 00:37:51
Наличие сканов в содержимом раздачи: Да (сканы)
Треклист:
01.Brother Louie
02.Just We Two (Mona Lisa)
03.Lady Lai
04.Doctor For My Heart
05.Save Me - Don't Break Me
06.Atlantis Is Calling (S.O.S. For Love)
07.Keep Love Alive
08.Hey You
09.Angie's Heart
10.Only Love Can Break My Heart
Лог проверки качества: 2.0 - DR11
foobar2000 1.1.10 / Dynamic Range Meter 1.1.1
log date: 2017-07-23 16:41:08
--------------------------------------------------------------------------------
Analyzed: Modern Talking / Ready For Romance - The 3rd Album (Victor, VIL-28051, Japan)
--------------------------------------------------------------------------------
DR Peak RMS Duration Track
--------------------------------------------------------------------------------
DR11 -1.08 dB -13.59 dB 3:44 01-Brother Louie
DR11 -1.28 dB -13.58 dB 3:56 02-Just We Two (Mona Lisa)
DR11 -1.42 dB -14.46 dB 4:58 03-Lady Lai
DR12 -1.69 dB -15.21 dB 3:21 04-Doctor For My Heart
DR11 -2.08 dB -15.29 dB 3:48 05-Save Me - Don't Break Me
DR11 -1.19 dB -13.99 dB 3:52 06-Atlantis Is Calling (S.O.S. For Love)
DR11 -1.08 dB -13.94 dB 3:28 07-Keep Love Alive
DR11 -1.47 dB -14.18 dB 3:21 08-Hey You
DR11 -1.04 dB -12.93 dB 3:41 09-Angie's Heart
DR11 -1.52 dB -14.72 dB 3:39 10-Only Love Can Break My Heart
--------------------------------------------------------------------------------
Number of tracks: 10
Official DR value: DR11
Samplerate: 192000 Hz
Channels: 2
Bits per sample: 24
Bitrate: 9216 kbps
Codec: PCM
================================================================================
Modern Talking_In The Middle Of Nowhere - The 4th Album - 1986 (Mega Records)
Формат записи/Источник записи:[DVDA][LP]
Год издания/переиздания диска: 1986
Жанр: pop
Лейбл: Mega Records
Страна-производитель: Scandinavia
Наличие водяных знаков: Нет
Продолжительность: 00:37:40
Наличие сканов в содержимом раздачи: Да (сканы)
Треклист:
01-Geronimo's Cadillac
02-Riding On A White Swan
03-Give Me Peace On Earth
04-Sweet Little Sheila
05-Ten Thousand Lonely Drums
06-Lonely Tears In Chinatown
07-In Shaire
08-Stranded In The Middle Of Nowhere
09-The Angels Sing In New York City
10-Princess Of The Night
Лог проверки качества: 2.0 - DR12
foobar2000 1.1.10 / Dynamic Range Meter 1.1.1
log date: 2017-07-23 15:30:43
--------------------------------------------------------------------------------
Analyzed: Modern Talking / In The Middle Of Nowhere - The 4th Album - 1986 (Mega Records)
--------------------------------------------------------------------------------
DR Peak RMS Duration Track
--------------------------------------------------------------------------------
DR11 -0.33 dB -13.23 dB 3:20 01-Geronimo's Cadillac
DR12 -0.52 dB -14.93 dB 3:56 02-Riding On A White Swan
DR12 -1.18 dB -15.16 dB 4:15 03-Give Me Peace On Earth
DR12 -1.53 dB -14.92 dB 3:08 04-Sweet Little Sheila
DR12 -0.48 dB -13.75 dB 3:30 05-Ten Thousand Lonely Drums
DR12 -0.08 dB -14.00 dB 3:34 06-Lonely Tears In Chinatown
DR12 -0.78 dB -14.67 dB 3:47 07-In Shaire
DR11 -1.93 dB -14.88 dB 4:34 08-Stranded In The Middle Of Nowhere
DR13 -0.34 dB -15.00 dB 3:38 09-The Angels Sing In New York City
DR12 -2.07 dB -15.46 dB 3:53 10-Princess Of The Night
--------------------------------------------------------------------------------
Number of tracks: 10
Official DR value: DR12
Samplerate: 192000 Hz
Channels: 2
Bits per sample: 24
Bitrate: 9216 kbps
Codec: PCM
================================================================================
Modern Talking_Romantic Warriors - The 5th Album -1987 (Hansa VIL-28096 Promo, Japan)
Формат записи/Источник записи:[DVDA][LP]
Год издания/переиздания диска: 1987
Жанр: pop
Лейбл: Hansa VIL-28096 Promo
Страна-производитель: Japan
Наличие водяных знаков: Нет
Продолжительность: 00:38:20
Наличие сканов в содержимом раздачи: Да (сканы)
Треклист:
01.Jet Airliner
02.Like A Hero
03.Don't Worry
04.Blinded By Your Love
05.Romantic Warriors
06.Arabian Gold
07.We Still Have Dreams
08.Operator Gimme 609
09.You And Me
10.Charlene
Лог проверки качества: 2.0 - DR12
foobar2000 1.1.10 / Dynamic Range Meter 1.1.1
log date: 2017-07-23 13:18:39
--------------------------------------------------------------------------------
Analyzed: Modern Talking / Romantic Warriors - The 5th Album (Hansa VIL-28096 Promo, Japan)
--------------------------------------------------------------------------------
DR Peak RMS Duration Track
--------------------------------------------------------------------------------
DR12 -0.35 dB -13.72 dB 4:23 01-Jet Airliner
DR12 -1.17 dB -17.99 dB 3:48 02-Like A Hero
DR12 -1.44 dB -14.74 dB 3:36 03-Don't Worry
DR13 -1.19 dB -16.21 dB 4:01 04-Blinded By Your Love
DR12 -1.49 dB -15.23 dB 3:59 05-Romantic Warriors
DR13 -0.18 dB -14.05 dB 3:43 06-Arabian Gold
DR12 -1.63 dB -15.15 dB 3:08 07-We Still Have Dreams
DR13 -0.27 dB -15.26 dB 3:42 08-Operator Gimme 609
DR12 -1.00 dB -14.09 dB 4:02 09-You And Me
DR12 -0.84 dB -13.58 dB 3:51 10-Charlene
--------------------------------------------------------------------------------
Number of tracks: 10
Official DR value: DR12
Samplerate: 192000 Hz
Channels: 2
Bits per sample: 24
Bitrate: 9216 kbps
Codec: PCM
================================================================================
Modern Talking_In The Garden Of Venus - The 6th Album - 1987 (Mega Records, MRLP 3081)
Формат записи/Источник записи:[DVDA][LP]
Год издания/переиздания диска: 1987
Жанр: pop
Лейбл: Mega Records, MRLP 3081
Страна-производитель: Europe
Наличие водяных знаков: Нет
Продолжительность: 00:34:05
Наличие сканов в содержимом раздачи: Да (сканы)
Треклист:
01.In 100 Years
02.Don't Let It Get You Down
03.Who Will Save The World
04.A Telegram To Your Heart
05.It's Christmas
06.Don't Lose My Number
07.Slow Motion
08.Locomotion Tango
09.Good Girls Go To Heaven - Bad Girls Go To Everywhere
10.In 100 Years (Reprise)
Лог проверки качества: 2.0 - DR12
foobar2000 1.1.10 / Dynamic Range Meter 1.1.1
log date: 2017-07-23 16:06:34
--------------------------------------------------------------------------------
Analyzed: Modern Talking / In The Garden Of Venus - The 6th Album - 1987 (Mega Records, MRLP 3081)
--------------------------------------------------------------------------------
DR Peak RMS Duration Track
--------------------------------------------------------------------------------
DR11 -0.49 dB -13.12 dB 3:59 01-In 100 Years
DR11 -0.63 dB -13.43 dB 3:43 02-Don't Let It Get You Down
DR11 -0.32 dB -13.15 dB 3:46 03-Who Will Save The World
DR11 -0.39 dB -12.99 dB 2:52 04-A Telegram To Your Heart
DR13 -0.90 dB -15.54 dB 3:54 05-It's Christmas
DR11 -0.31 dB -12.44 dB 3:12 06-Don't Lose My Number
DR11 -0.56 dB -12.67 dB 3:41 07-Slow Motion
DR13 -0.83 dB -14.97 dB 3:51 08-Locomotion Tango
DR12 -0.46 dB -13.45 dB 3:38 09-Good Girls Go To Heaven - Bad Girls Go To Everywhere
DR11 -1.81 dB -16.43 dB 1:27 10-In 100 Years (Reprise)
--------------------------------------------------------------------------------
Number of tracks: 10
Official DR value: DR12
Samplerate: 192000 Hz
Channels: 2
Bits per sample: 24
Bitrate: 9216 kbps
Codec: PCM
================================================================================
Источник : Огроменное спасибище за проделанную работу с винилом: Dymokust, bruk67, togustotopusto
Доп. информация: Запись на DVD - 4,7 программой ImgBurn.
На усилке 2.0 чистый класс A звучит душевно!
Download
Для скачивания .torrent файлов необходима регистрация
Сайт не распространяет и не хранит электронные версии произведений, а лишь предоставляет доступ к создаваемому пользователями каталогу ссылок на торрент-файлы, которые содержат только списки хеш-сумм
[Профиль]  [ЛС] 

csantipa

Стаж: 10 лет 4 месяца

Сообщений: 272


csantipa · 11-Июл-17 12:26 (спустя 45 сек., ред. 23-Июл-17 22:18)

[Цитировать] 

Данный DVD-A собрал по просьбе.
Оформление диска и коробки оставляю за Вами.
Приятного прослушивания!
Огроменное спасибище за проделанную работу с винилом.
Торрент обновлен 23.072017, перекачайте заново!
[Профиль]  [ЛС] 

kramskoi07

Стаж: 4 года 6 месяцев

Сообщений: 119


kramskoi07 · 12-Июл-17 17:07 (спустя 1 день 4 часа)

[Цитировать] 

низов хоть отбавляй,верхов нет
[Профиль]  [ЛС] 

Lenmon

Стаж: 3 года 10 месяцев

Сообщений: 1


Lenmon · 12-Июл-17 20:57 (спустя 3 часа)

[Цитировать] 

В чем прикол, если МАСТЕР 44,1 (максимум 48) КГц при 16 Битном разрешении?
[Профиль]  [ЛС] 

Joy68

Стаж: 7 лет 1 месяц

Сообщений: 962

Joy68 · 17-Июл-17 09:35 (спустя 4 дня)

[Цитировать] 

Уважаемый csantipa третий альбом не планируете сделать в формате DVDA ?
[Профиль]  [ЛС] 

csantipa

Стаж: 10 лет 4 месяца

Сообщений: 272


csantipa · 19-Июл-17 21:25 (спустя 2 дня 11 часов, ред. 19-Июл-17 21:25)

[Цитировать] 

Joy68 писал(а):
73527952Уважаемый csantipa третий альбом не планируете сделать в формате DVDA ?
Еще не знаю, хотел для себя сделать все 6 дисков на одном BD.
А может и на DVD-A соберу, еще не решил.
Если нужны именно DVD-A дайте знать, может соберу чуть позже.
[Профиль]  [ЛС] 

Joy68

Стаж: 7 лет 1 месяц

Сообщений: 962

Joy68 · 22-Июл-17 16:30 (спустя 2 дня 19 часов)

[Цитировать] 

csantipa писал(а):
73540954
Joy68 писал(а):
73527952Уважаемый csantipa третий альбом не планируете сделать в формате DVDA ?
Еще не знаю, хотел для себя сделать все 6 дисков на одном BD.
А может и на DVD-A соберу, еще не решил.
Если нужны именно DVD-A дайте знать, может соберу чуть позже.
Уважаемый csantipa спасибо за ответ. Каждый альбом на одном диске в формате DVD-A. Буду следить за Вашими раздачами.
[Профиль]  [ЛС] 

bot · 06-Авг-17 08:31 (спустя 14 дней)

Тема была перенесена из форума Конверсии SACD в форум Конверсии Blu-Ray, ADVD и DVD-Audio
MihRih
 

Dirkvl

Стаж: 4 года 10 месяцев

Сообщений: 14


Dirkvl · 15-Авг-17 03:19 (спустя 23 дня)

[Цитировать] 

csantipa
Impossível reproduzir os arquivos DVDA_Modern Talking_The 1st Album -1985 (Victor, VIL-6191, Japan).iso
Formato de arquivos: AOB (*aob) Audio File (.AOB) nenhum player VLC, K-Lite Codec Pack, Foobar, Aimp, Korg Audio Gate...
Poderia fornecer uma dica!!! "DVD-A ou SACD", Queria uma distribuição DSD (*dsd)
https://ibb.co/nLZxZv
AOB - Audio File (.AOB)
AOB - Audio File (*AOB)
https://ibb.co/mJc6SF
Obrigado!!!
[Профиль]  [ЛС] 

csantipa

Стаж: 10 лет 4 месяца

Сообщений: 272


csantipa · 18-Авг-17 16:23 (спустя 3 дня, ред. 19-Авг-17 23:20)

[Цитировать] 

С раздачи ушел, держите сами!
Определился, для себя буду собирать BD-A.
[Профиль]  [ЛС] 

ReaperHD

Стаж: 6 лет 1 месяц

Сообщений: 1


ReaperHD · 20-Авг-17 18:06 (спустя 2 дня 1 час)

[Цитировать] 

There is a way to run that on Foobar 2000 ?
I have a Xonar D2X and Sennheiser HD598.
And a Onkyo TX-NR 616.
Tried anything that came to mind, but the file insists on not to play
[Профиль]  [ЛС] 

csantipa

Стаж: 10 лет 4 месяца

Сообщений: 272


csantipa · 20-Авг-17 18:14 (спустя 7 мин., ред. 20-Авг-17 18:14)

[Цитировать] 

ReaperHD писал(а):
73703509There is a way to run that on Foobar 2000 ?
I have a Xonar D2X and Sennheiser HD598.
And a Onkyo TX-NR 616.
Tried anything that came to mind, but the file insists on not to play
Очень просто можно запустить на Foobar 2000, просто установите foo_input_dvda.dll для прослушивания DVD-A.
Удачи!
[Профиль]  [ЛС] 

Dirkvl

Стаж: 4 года 10 месяцев

Сообщений: 14


Dirkvl · 21-Авг-17 02:07 (спустя 7 часов)

[Цитировать] 

ReaperHD писал(а):
73703509There is a way to run that on Foobar 2000 ?
I have a Xonar D2X and Sennheiser HD598.
And a Onkyo TX-NR 616.
Tried anything that came to mind, but the file insists on not to play
USE:
Put foo_input_dvda.dll into foobar200\components subfolder. Then open AUDIO_TS\AIDIO_TS.IFO, *.MLP or *.ISO file for playback.
https://ibb.co/jGaP45
Download
https://sourceforge.net/projects/dvdadecoder/
foo_input_dvda-0.4.11.zip
[Профиль]  [ЛС] 

Joy68

Стаж: 7 лет 1 месяц

Сообщений: 962

Joy68 · 03-Ноя-17 10:43 (спустя 2 месяца 13 дней)

[Цитировать] 

yura1861 писал(а):
74140637Может кто сделает BD(SA) ?...
А смысл? Один диск вместо шести? DD2.0 в DTS-HD не превратится!
[Профиль]  [ЛС] 

csantipa

Стаж: 10 лет 4 месяца

Сообщений: 272


csantipa · 03-Ноя-17 18:04 (спустя 7 часов, ред. 03-Ноя-17 18:04)

[Цитировать] 

Поставил в рвботу! Для для себя сделаю все альбочы на одном BD-A диске в 192 разрешении lpcm
Все будет на оном диске!!!!
Ломать частоту нет смысла! Для усилка - чистый А КЛАСС
[Профиль]  [ЛС] 

yura1861

Стаж: 6 лет

Сообщений: 5


yura1861 · 16-Ноя-17 15:46 (спустя 12 дней)

[Цитировать] 

"Для для себя сделаю все альбочы на одном BD-A диске в 192 разрешении lpcm"
Прошу прощения за беспокойсво,нл можнт поделитесь BD-A?Мой Лджи кинотеатр не видит то что выложено...
[Профиль]  [ЛС] 

csantipa

Стаж: 10 лет 4 месяца

Сообщений: 272


csantipa · 17-Ноя-17 19:02 (спустя 1 день 3 часа, ред. 17-Ноя-17 19:02)

[Цитировать] 

yura1861 писал(а):
74244134"Для для себя сделаю все альбочы на одном BD-A диске в 192 разрешении lpcm"
Прошу прощения за беспокойсво,нл можнт поделитесь BD-A?Мой Лджи кинотеатр не видит то что выложено...
Сделаю для себя, выложу.
[Профиль]  [ЛС] 

mealengab

Стаж: 9 лет 9 месяцев

Сообщений: 169


mealengab · 06-Дек-17 17:55 (спустя 18 дней)

[Цитировать] 

csantipa писал(а):
74251740Сделаю для себя, выложу.
ждём конверт в BD заранее спасибо!
[Профиль]  [ЛС] 

Gaiver1

Стаж: 10 лет 8 месяцев

Сообщений: 80


Gaiver1 · 06-Янв-18 23:17 (спустя 1 месяц)

[Цитировать] 

Йомаха ё ма соль....народ раздачей поможете после как я другую прослушаю...?))) которая на 6.45 гиг))?
[Профиль]  [ЛС] 

Joy68

Стаж: 7 лет 1 месяц

Сообщений: 962

Joy68 · 07-Янв-18 11:45 (спустя 12 часов)

[Цитировать] 

Gaiver1 писал(а):
74555683Йомаха ё ма соль....народ раздачей поможете после как я другую прослушаю...?))) которая на 6.45 гиг))?
Раздаю круглосуточно.
[Профиль]  [ЛС] 

Ataman_Boris

Стаж: 9 лет 10 месяцев

Сообщений: 5


Ataman_Boris · 19-Фев-18 14:48 (спустя 1 месяц 12 дней, ред. 19-Фев-18 14:48)

[Цитировать] 

Возможно ли переконвертировать исошный образ в wav файлы для проигрывания на cd плеере?Весь интернет обрыл,подскажите как это сделать?(1 альбом Modern Talking)
[Профиль]  [ЛС] 
 
Ответить
Loading...
Error