Король Шаман / Shaman King / Шаман Кинг [Special] [серия 2 из 5] [без хардсаба] [JAP, SUB] [2003, приключения, комедия, мистика, сёнэн, DVDRip]

Страницы:  1

Ответить
Автор
Сообщение

SOFCJ

Top Loader 04* 1TB

Стаж: 10 лет 9 месяцев

Сообщений: 1805

SOFCJ · 03-Фев-17 21:28 (1 год 10 месяцев назад, ред. 20-Янв-18 10:39)

Король Шаман / Shaman King / Шаман Кинг
The Form That Friendship Takes

Год выпуска: 2002
Год выпуска на DVD: 02.10.2002
Страна: Япония
Жанр: Приключения, комедия, мистика, сёнэн
Тип аниме: Special
Продолжительность: только 2ой из 5 эп., 48 мин.
Перевод: Субтитры
Субтитры: ass, русские, (Автор перевода: Term)
Хардсаб: Нет (субтитры в составе контейнера)
Режиссер: Мидзусима Сэйдзи
Снято по манге: Shaman King
Автор оригинала: Такэй Хироюки [мангака]
Описание: Каждые 500 лет Звезда Судьбы, Лаго, проносится по небу, оповещая всех шаманов мира о том, что Великий Турнир Шаманов начался. Лаго — звезда, несущая миру разрушение и хаос, но раз в 500 лет выбирается Шаман, достойный объединения с Королем Духов — духом всего сущего — чтобы спасти мир. Шаман — человек, способный видеть духов и сражаться вместе с ними как единое целое. Шаманы, в отличие от людей, хранят жизнь на Земле, берегут природу и понимают её. Цель Турнира заключается в том, что шаман, который прошёл все испытания и бои, становится Королём Шаманов, объединяется с Королём Духов — величайшим и сильнейшим духом в мире, — и становится настолько могущественным, что может управлять всей жизнью на Земле.
Доп. инфо: Второй спецвыпуск посвящён рассказу о дружбе между персонажами и "формах" которую она принимает.
Качество: DVDRip
Автор рипа: SOFCJ (скрипт обработки видео - Urotsuki)
Формат видео: MKV
Видео: x264, 768x576, 10bit, VFR 24.051 fps, ~2 793 kb/s
Аудио: AC3, 48000Hz, 384kbps, 2ch, язык: японский
Спецвыпуски:
01. The Document of Shaman Fight (ザ・ドキュメント オブ シャーマンファイト) (новогодний ТВ-спэшл, 23 мин.)
02. The Form That Friendship Takes (Yujo no Katachi/友情のかたち) (48 мин.)
03. The Form That Love Takes (Ai no Katachi/愛のかたち) (51 мин)
04. The Form That Sadness Takes ~Hao's Tribute~ (Kanashimi no Katachi ~Hao Densetsu~/哀しみのかたち~葉王伝説~) (28 мин.)
05. OVA「S.F.O.V」(Shaman Fight Of Vocal) - пять коротких эпизодов в виде бонусов к CD (13 мин.)

Скриншоты
MediaInfo
Код:
Format                      : Matroska
Format version              : Version 4 / Version 2
File size                   : 1.06 GiB
Duration                    : 47 min 56 s
Overall bit rate            : 3 179 kb/s
Movie name                  : [SOFCJ-Raws] Shaman King Special 2 - Yujo no Katachi (DVDRip 768x576 x264 VFR 10bit AC3)
Encoded date                : UTC 2018-01-14 13:14:40
Writing application         : mkvmerge v8.3.0 ('Over the Horizon') 64bit
Writing library             : libebml v1.3.1 + libmatroska v1.4.2
Video
ID                          : 1
Format                      : AVC
Format/Info                 : Advanced Video Codec
Format profile              : High [email protected]
Format settings             : CABAC / 10 Ref Frames
Format settings, CABAC      : Yes
Format settings, ReFrames   : 10 frames
Codec ID                    : V_MPEG4/ISO/AVC
Duration                    : 47 min 56 s
Bit rate                    : 2 793 kb/s
Width                       : 768 pixels
Height                      : 576 pixels
Display aspect ratio        : 4:3
Frame rate mode             : Variable
Frame rate                  : 24.051 FPS
Original frame rate         : 23.976 (24000/1001) FPS
Color space                 : YUV
Chroma subsampling          : 4:2:0
Bit depth                   : 10 bits
Scan type                   : Progressive
Bits/(Pixel*Frame)          : 0.263
Stream size                 : 958 MiB (88%)
Writing library             : x264 core 148 r2744kMod b97ae06
Encoding settings           : cabac=1 / ref=10 / deblock=1:-2:-2 / analyse=0x3:0x133 / me=umh / subme=10 / psy=1 / fade_compensate=0.00 / psy_rd=0.70:0.00 / mixed_ref=1 / me_range=24 / chroma_me=1 / trellis=2 / 8x8dct=1 / cqm=0 / deadzone=21,11 / fast_pskip=0 / chroma_qp_offset=-2 / threads=12 / lookahead_threads=2 / sliced_threads=0 / nr=0 / decimate=0 / interlaced=0 / bluray_compat=0 / constrained_intra=0 / bframes=8 / b_pyramid=2 / b_adapt=2 / b_bias=0 / direct=1 / weightb=1 / open_gop=0 / weightp=2 / keyint=250 / keyint_min=23 / scenecut=40 / intra_refresh=0 / rc=crf / mbtree=0 / crf=15.0000 / qcomp=0.60 / qpmin=5 / qpmax=40 / qpstep=4 / ip_ratio=1.40 / pb_ratio=1.30 / aq=1:1.00
Language                    : Japanese
Default                     : Yes
Forced                      : No
Audio
ID                          : 2
Format                      : AC-3
Format/Info                 : Audio Coding 3
Codec ID                    : A_AC3
Duration                    : 47 min 56 s
Bit rate mode               : Constant
Bit rate                    : 384 kb/s
Channel(s)                  : 2 channels
Channel positions           : Front: L R
Sampling rate               : 48.0 kHz
Frame rate                  : 31.250 FPS (1536 SPF)
Bit depth                   : 16 bits
Compression mode            : Lossy
Stream size                 : 132 MiB (12%)
Language                    : Japanese
Service kind                : Complete Main
Default                     : Yes
Forced                      : No
Text
ID                          : 3
Format                      : ASS
Codec ID                    : S_TEXT/ASS
Codec ID/Info               : Advanced Sub Station Alpha
Duration                    : 47 min 41 s
Bit rate                    : 139 b/s
Count of elements           : 682
Compression mode            : Lossless
Stream size                 : 48.9 KiB (0%)
Title                       : by Term
Language                    : Russian
Default                     : Yes
Forced                      : No
Фото дисков
Download
Для скачивания .torrent файлов необходима регистрация
Сайт не распространяет и не хранит электронные версии произведений, а лишь предоставляет доступ к создаваемому пользователями каталогу ссылок на торрент-файлы, которые содержат только списки хеш-сумм
[Профиль]  [ЛС] 

Ich Lauf

VIP (Заслуженный)

Стаж: 10 лет 1 месяц

Сообщений: 11537

Ich Lauf · 05-Фев-17 00:07 (спустя 1 день 2 часа)

[Цитировать] 

скрытый текст
SOFCJ писал(а):
72407311(субтитры в составе контейнера)
SOFCJ писал(а):
72407311MediaInfo
А где именно в контейнере?
[Профиль]  [ЛС] 

SOFCJ

Top Loader 04* 1TB

Стаж: 10 лет 9 месяцев

Сообщений: 1805

SOFCJ · 05-Фев-17 00:36 (спустя 28 мин., ред. 05-Фев-17 00:36)

[Цитировать] 

скрытый текст
Ich Lauf
На месте, не то МИ скопировал просто(с раздачи для няхи)
скрытый текст
Код:
General
Unique ID                      : 214646287614081002682869419400908757651 (0xA17B5F0BFE40E187A106B7FC86A7DA93)
Complete name                  : V:\Rutracker\[SOFCJ-Raws] Shaman King Special 2 - Yujo no Katachi (DVDRip 768x576 x264 10bit AC3).mkv
Format                         : Matroska
Format version                 : Version 4 / Version 2
File size                      : 877 MiB
Duration                       : 47 min 56 s
Overall bit rate               : 2 559 kb/s
Movie name                     : [SOFCJ-Raws] Shaman King Special 2 - Yujo no Katachi (DVDRip 768x576 x264 10bit AC3)
Encoded date                   : UTC 2010-02-22 21:41:31
Writing application            : mkvmerge v5.9.0 ('On The Loose') built on Dec  9 2012 15:37:01
Writing library                : libebml v1.3.0 + libmatroska v1.4.0
Video
ID                             : 1
Format                         : AVC
Format/Info                    : Advanced Video Codec
Format profile                 : High [email protected]
Format settings, CABAC         : Yes
Format settings, ReFrames      : 10 frames
Codec ID                       : V_MPEG4/ISO/AVC
Duration                       : 47 min 57 s
Bit rate                       : 2 124 kb/s
Width                          : 768 pixels
Height                         : 576 pixels
Display aspect ratio           : 4:3
Frame rate mode                : Constant
Frame rate                     : 23.976 (24000/1001) FPS
Color space                    : YUV
Chroma subsampling             : 4:2:0
Bit depth                      : 10 bits
Scan type                      : Progressive
Bits/(Pixel*Frame)             : 0.200
Stream size                    : 728 MiB (83%)
Writing library                : x264 core 148 r2744kMod b97ae06
Encoding settings              : cabac=1 / ref=10 / deblock=1:-2:-2 / analyse=0x3:0x133 / me=umh / subme=10 / psy=1 / fade_compensate=0.00 / psy_rd=0.70:0.00 / mixed_ref=1 / me_range=24 / chroma_me=1 / trellis=2 / 8x8dct=1 / cqm=0 / deadzone=21,11 / fast_pskip=0 / chroma_qp_offset=-2 / threads=12 / lookahead_threads=2 / sliced_threads=0 / nr=0 / decimate=0 / interlaced=0 / bluray_compat=0 / constrained_intra=0 / bframes=8 / b_pyramid=2 / b_adapt=2 / b_bias=0 / direct=1 / weightb=1 / open_gop=0 / weightp=2 / keyint=250 / keyint_min=23 / scenecut=40 / intra_refresh=0 / rc=crf / mbtree=0 / crf=16.0000 / qcomp=0.60 / qpmin=5 / qpmax=40 / qpstep=4 / ip_ratio=1.40 / pb_ratio=1.30 / aq=1:1.00
Language                       : Japanese
Default                        : Yes
Forced                         : No
Statistics Tags Issue          : mkvmerge v7.8.0 ('River Man') 32bit built on Apr  3 2015 12:11:22 2017-02-03 18:02:09 / mkvmerge v5.9.0 ('On The Loose') built on Dec  9 2012 15:37:01 2010-02-22 21:41:31
FromStats_BitRate              : 2174952
FromStats_Duration             : 00:47:56.999000000
FromStats_FrameCount           : 68979
FromStats_StreamSize           : 782166863
Audio
ID                             : 2
Format                         : AC-3
Format/Info                    : Audio Coding 3
Mode extension                 : CM (complete main)
Format settings, Endianness    : Big
Codec ID                       : A_AC3
Duration                       : 47 min 56 s
Bit rate mode                  : Constant
Bit rate                       : 384 kb/s
Channel(s)                     : 2 channels
Channel positions              : Front: L R
Sampling rate                  : 48.0 kHz
Frame rate                     : 31.250 FPS (1536 spf)
Bit depth                      : 16 bits
Compression mode               : Lossy
Stream size                    : 132 MiB (15%)
Language                       : Japanese
Default                        : Yes
Forced                         : No
Statistics Tags Issue          : mkvmerge v7.8.0 ('River Man') 32bit built on Apr  3 2015 12:11:22 2017-02-03 18:02:09 / mkvmerge v5.9.0 ('On The Loose') built on Dec  9 2012 15:37:01 2010-02-22 21:41:31
FromStats_BitRate              : 384000
FromStats_Duration             : 00:47:56.992000000
FromStats_FrameCount           : 89906
FromStats_StreamSize           : 138095616
Text
ID                             : 3
Format                         : ASS
Codec ID                       : S_TEXT/ASS
Codec ID/Info                  : Advanced Sub Station Alpha
Compression mode               : Lossless
Title                          : by Term
Language                       : Russian
Default                        : Yes
Forced                         : No
[Профиль]  [ЛС] 

Ich Lauf

VIP (Заслуженный)

Стаж: 10 лет 1 месяц

Сообщений: 11537

Ich Lauf · 05-Фев-17 00:52 (спустя 16 мин.)

[Цитировать] 

скрытый текст
SOFCJ писал(а):
72416657На месте,
Хорошо, обновил. Кстати, лучше бы одну раздачу постепенно пополнял - удобнее.
[Профиль]  [ЛС] 

SOFCJ

Top Loader 04* 1TB

Стаж: 10 лет 9 месяцев

Сообщений: 1805

SOFCJ · 05-Фев-17 00:57 (спустя 5 мин.)

[Цитировать] 

Ich Lauf
Да думаю как куплю 3 спешал, объединю в одну раздачу.
[Профиль]  [ЛС] 

SOFCJ

Top Loader 04* 1TB

Стаж: 10 лет 9 месяцев

Сообщений: 1805

SOFCJ · 14-Янв-18 18:40 (спустя 11 месяцев, ред. 14-Янв-18 18:40)

[Цитировать] 

Видео заменено на более качественное, улучшен скрипт фильтрации титров.
[Профиль]  [ЛС] 

Zаbr

Помощник модератора

Стаж: 4 года 9 месяцев

Сообщений: 3092

Zаbr · 23-Апр-18 17:55 (спустя 3 месяца 8 дней)

[Цитировать] 

SOFCJ писал(а):
72407311Субтитры: ass, русские, (Автор перевода: Term)
SOFCJ писал(а):
72407311Аудио: AC3, 48000Hz, 384kbps, 2ch, язык: японский
выделенное дописано
[Профиль]  [ЛС] 
 
Ответить
Loading...
Error