Остров лемуров: Мадагаскар / Island of Lemurs: Madagascar (Дэвид Дуглас / David Douglas) [2014, Документальный, BDRip-AVC, 720p]

Страницы:  1

Ответить
Автор
Сообщение

Vicman

Top Seed 02* 80r

Стаж: 11 лет 1 месяц

Сообщений: 487

Vicman · 04-Дек-16 14:44 (1 год 11 месяцев назад, ред. 09-Дек-16 15:30)

Остров лемуров: Мадагаскар / Island of Lemurs: Madagascar
Год выпуска: 2014
Страна: Канада, США, Мадагаскар
Студия: Warner Bros. Pictures
Жанр: Документальный
Продолжительность: 00:40:39
Перевод: Профессиональный (двухголосый закадровый) студия "Омикрон" (по субтитрам Ash61)
Субтитры: русские (автор Ash61), английские
Режиссер: Дэвид Дуглас / David Douglas
Описание: Лемуры оказались на острове миллионы лет назад и постепенно эволюционировали в сотни различных видов. Сегодня эти уникальные животные оказались под угрозой исчезновения. Последуйте примеру ученого-новатора Патрисии Райт, которая всю жизнь оказывает помощь лемурам, сохраняя это чудо природы в современном мире.
Доп. информация: Озвучивание осуществлено в рамках сервиса "Озвучивание" по заказу HDClub. Спонсоры: RAUL, Magal, Turko, stallk, laser10, PoHHaN, konarev, interlexa, _idkfa_.
За спасибо Burn in
Тип релиза: BDRip 720p
Контейнер: MKV
Видео: AVC, 1280x720 (16:9), 8200 Kbps, 23.976 fps, 0.371 bit\pixel
Аудио RUS: AC3, 448 Кбит/с, 48 kHz, 6 ch
Аудио ENG: AC3, 448 Кбит/с, 48 kHz, 6 ch
Формат субтитров: softsub (SRT)
x264 log
...last pass...
x264.exe: --pass 2 --bitrate 8200 --preset slower --level 4.1 --ref 12 --aq-mode 2 --deblock -3:-3 --merange 32 --bframes 11 --psy-rd 1.00:0.02 --subme 10 --vbv-bufsize 0 --vbv-maxrate 0 --partitions p8x8,b8x8,i4x4,i8x8 --sar 1:1 --stats "G:\Остров лемуров. Мадагаскар (2014).log" --output "G:\Остров лемуров. Мадагаскар (2014).mkv" "F:\Temp\0750.avs"
avs [info]: 1280x720p 1:1 @ 2500000/104271 fps (cfr)
x264 [info]: using SAR=1/1
x264 [warning]: DPB size (12 frames, 43200 mbs) > level limit (9 frames, 32768 mbs)
x264 [info]: using cpu capabilities: MMX2 SSE2Fast SSSE3 SSE4.2 AVX
x264 [info]: profile High, level 4.1
x264 [info]: frame I:303 Avg QP:15.27 size:334143
x264 [info]: frame P:16152 Avg QP:18.45 size:107779
x264 [info]: frame B:42032 Avg QP:23.98 size: 15677
MI
General
Unique ID : 198867680626632148370502169124204880291 (0x959C85A8EEE9747BAAA86541D46EA1A3)
Complete name : D:\Видео\Island of Lemurs Madagascar (2014) BDRip-AVC.mkv
Format : Matroska
Format version : Version 4 / Version 2
File size : 2.58 GiB
Duration : 40mn 39s
Overall bit rate : 9 100 Kbps
Encoded date : UTC 2016-12-04 08:26:54
Writing application : mkvmerge v8.3.0 ('Over the Horizon') 64bit
Writing library : libebml v1.3.1 + libmatroska v1.4.2
DURATION : 00:39:20.441000000
NUMBER_OF_FRAMES : 307
NUMBER_OF_BYTES : 10490
_STATISTICS_WRITING_APP : mkvmerge v8.3.0 ('Over the Horizon') 64bit
_STATISTICS_WRITING_DATE_UTC : 2016-12-04 08:26:54
_STATISTICS_TAGS : BPS DURATION NUMBER_OF_FRAMES NUMBER_OF_BYTES
Video
ID : 1
Format : AVC
Format/Info : Advanced Video Codec
Format profile : [email protected]
Format settings, CABAC : Yes
Format settings, ReFrames : 12 frames
Codec ID : V_MPEG4/ISO/AVC
Duration : 40mn 39s
Bit rate : 8 200 Kbps
Width : 1 280 pixels
Height : 720 pixels
Display aspect ratio : 16:9
Frame rate mode : Constant
Frame rate : 23.976 fps
Color space : YUV
Chroma subsampling : 4:2:0
Bit depth : 8 bits
Scan type : Progressive
Bits/(Pixel*Frame) : 0.371
Stream size : 2.28 GiB (88%)
Writing library : x264 core 148 r2744 b97ae06
Encoding settings : cabac=1 / ref=12 / deblock=1:-3:-3 / analyse=0x3:0x113 / me=umh / subme=10 / psy=1 / psy_rd=1.00:0.02 / mixed_ref=1 / me_range=32 / chroma_me=1 / trellis=2 / 8x8dct=1 / cqm=0 / deadzone=21,11 / fast_pskip=1 / chroma_qp_offset=-3 / threads=6 / lookahead_threads=1 / sliced_threads=0 / nr=0 / decimate=1 / interlaced=0 / bluray_compat=0 / constrained_intra=0 / bframes=11 / b_pyramid=2 / b_adapt=2 / b_bias=0 / direct=3 / weightb=1 / open_gop=0 / weightp=2 / keyint=250 / keyint_min=23 / scenecut=40 / intra_refresh=0 / rc_lookahead=60 / rc=2pass / mbtree=1 / bitrate=8200 / ratetol=1.0 / qcomp=0.60 / qpmin=0 / qpmax=69 / qpstep=4 / cplxblur=20.0 / qblur=0.5 / ip_ratio=1.40 / aq=2:1.00
Language : English
Default : Yes
Forced : No
DURATION : 00:40:39.399000000
NUMBER_OF_FRAMES : 58487
NUMBER_OF_BYTES : 2501036883
_STATISTICS_WRITING_APP : mkvmerge v8.3.0 ('Over the Horizon') 64bit
_STATISTICS_WRITING_DATE_UTC : 2016-12-04 08:26:54
_STATISTICS_TAGS : BPS DURATION NUMBER_OF_FRAMES NUMBER_OF_BYTES
Audio #1
ID : 2
Format : AC-3
Format/Info : Audio Coding 3
Mode extension : CM (complete main)
Format settings, Endianness : Big
Codec ID : A_AC3
Duration : 40mn 39s
Bit rate mode : Constant
Bit rate : 448 Kbps
Channel(s) : 6 channels
Channel positions : Front: L C R, Side: L R, LFE
Sampling rate : 48.0 KHz
Compression mode : Lossy
Stream size : 130 MiB (5%)
Title : AC3, 5.1, 448 kbps | DVO "Омикрон"
Language : Russian
Default : Yes
Forced : No
Audio #2
ID : 3
Format : AC-3
Format/Info : Audio Coding 3
Mode extension : CM (complete main)
Format settings, Endianness : Big
Codec ID : A_AC3
Duration : 40mn 39s
Bit rate mode : Constant
Bit rate : 448 Kbps
Channel(s) : 6 channels
Channel positions : Front: L C R, Side: L R, LFE
Sampling rate : 48.0 KHz
Compression mode : Lossy
Stream size : 130 MiB (5%)
Title : AC3, 5.1, 448 kbps | Original
Language : English
Default : No
Forced : No
Text #1
ID : 4
Format : UTF-8
Codec ID : S_TEXT/UTF8
Codec ID/Info : UTF-8 Plain Text
Title : Перевод Ash61
Language : Russian
Default : No
Forced : No
Text #2
ID : 5
Format : UTF-8
Codec ID : S_TEXT/UTF8
Codec ID/Info : UTF-8 Plain Text
Language : English
Default : No
Forced : No
Menu
00:00:00.000 : :1
00:07:05.133 : :2
00:12:47.517 : :3
00:21:27.286 : :4
00:29:21.343 : :5
00:36:37.821 : :6
00:39:18.064 : :7
Скриншоты
Download
Для скачивания .torrent файлов необходима регистрация
Сайт не распространяет и не хранит электронные версии произведений, а лишь предоставляет доступ к создаваемому пользователями каталогу ссылок на торрент-файлы, которые содержат только списки хеш-сумм
[Профиль]  [ЛС] 

Vicman

Top Seed 02* 80r

Стаж: 11 лет 1 месяц

Сообщений: 487

Vicman · 04-Дек-16 14:56 (спустя 11 мин.)

[Цитировать] 

Сравнение с раздачей Shoegaze
http://rutracker.org/forum/viewtopic.php?t=4982451
http://screenshotcomparison.com/comparison/192697
В той раздаче применена коррекция яркости, вот её сравнение с исходником
http://screenshotcomparison.com/comparison/192699
[Профиль]  [ЛС] 
 
Ответить
Loading...
Error