BBC: Гении древнего мира (3 серии) / Genius Of The Ancient World (Роб Коулинг / Rob Cowling) [2015, Документальный, история, исследования, HDTVRip]

Страницы:  1

Ответить
Автор
Сообщение

Hiton_Black

Стаж: 8 лет 6 месяцев

Сообщений: 53

Hiton_Black · 02-Дек-16 13:55 (1 год 11 месяцев назад, ред. 11-Дек-16 02:54)

Гении древнего мираGenius Of The Ancient World Дата/Год выпуска: 2015
Страна: Великобритания
Жанр: Документальный, история, исследования
Продолжительность: 3 x ~ 00:58:00
Перевод: Одноголосый закадровый
Русские субтитры: нет
Режиссер: Роб Коулинг / Rob Cowling
Телеканал: BBC
Описание: Историк Бетани Хьюз отправляется в путешествие по Индии, Греции и Китаю, по следам трёх великих философов древних времён: Будды, Сократа и Конфуция. Все они проходили огромные расстояния, погружаясь в размышления во время своих путешествий. Благодаря Бетани мы узнаем кое-что новое об этих великих мыслителях, живших в V веке до н.э. и о том, как они повлияли на современный образ мышления.
Сэмпл: https://yadi.sk/i/KNO6qJ1szyybG
качество: HDTVRip
формат: AVI
Видео: Xvid, 1280x720 (16:9), ~2000 Kbps
Аудио: MP3, 2 ch, 160 Kbps, CBR
Список выпусков/серий
01. Будда / Buddha
02. Сократ / Socrates
03. Конфуций / Confucius
MediaInfo
Общее
Полное имя : D:\Кинотеатр\BBC_Genius Of The Ancient World\01. Будда - Buddha.avi
Формат : AVI
Формат/Информация : Audio Video Interleave
Размер файла : 908 Мбайт
Продолжительность : 58 м.
Общий поток : 2167 Кбит/сек
Программа кодирования : MEncoder SVN-r33883(20110719-gcc4.5.2)
Библиотека кодирования : MPlayer
Видео
Идентификатор : 0
Формат : MPEG-4 Visual
Профиль формата : Advanced [email protected]
Параметр BVOP формата : 2
Параметр QPel формата : Нет
Параметр GMC формата : Без точки перехода
Параметр матрицы формата : Default (H.263)
Идентификатор кодека : XVID
Идентификатор кодека/Подсказка : XviD
Продолжительность : 58 м.
Битрейт : 1995 Кбит/сек
Ширина : 1280 пикселей
Высота : 720 пикселей
Соотношение сторон : 16:9
Частота кадров : 25,000 кадров/сек
Цветовое пространство : YUV
Субдискретизация насыщенности : 4:2:0
Битовая глубина : 8 бит
Тип развёртки : Прогрессивная
Метод сжатия : С потерями
Бит/(Пиксели*Кадры) : 0.087
Размер потока : 835 Мбайт (92%)
Библиотека кодирования : XviD 1.2.1 (UTC 2008-12-04)
Аудио
Идентификатор : 1
Формат : MPEG Audio
Версия формата : Version 1
Профиль формата : Layer 3
Режим : Joint stereo
Расширение режима : MS Stereo
Идентификатор кодека : 55
Идентификатор кодека/Подсказка : MP3
Продолжительность : 58 м.
Вид битрейта : Постоянный
Битрейт : 160 Кбит/сек
Каналы : 2 канала
Частота : 44,1 КГц
Метод сжатия : С потерями
Задержка видео : 40 мс.
Размер потока : 67,0 Мбайт (7%)
Выравнивание : Соединение по промежуткам
Продолжительность промежутка : 26 мс. (0,65 видеокадр)
Время предзагрузки промежутка : 522 мс.
Библиотека кодирования : LAME3.98.4
Общее
Полное имя : D:\Кинотеатр\BBC_Genius Of The Ancient World\02. Сократ - Socrates.avi
Формат : AVI
Формат/Информация : Audio Video Interleave
Размер файла : 906 Мбайт
Продолжительность : 58 м.
Общий поток : 2167 Кбит/сек
Программа кодирования : MEncoder SVN-r33883(20110719-gcc4.5.2)
Библиотека кодирования : MPlayer
Видео
Идентификатор : 0
Формат : MPEG-4 Visual
Профиль формата : Advanced [email protected]
Параметр BVOP формата : 2
Параметр QPel формата : Нет
Параметр GMC формата : Без точки перехода
Параметр матрицы формата : Default (H.263)
Идентификатор кодека : XVID
Идентификатор кодека/Подсказка : XviD
Продолжительность : 58 м.
Битрейт : 1995 Кбит/сек
Ширина : 1280 пикселей
Высота : 720 пикселей
Соотношение сторон : 16:9
Частота кадров : 25,000 кадров/сек
Цветовое пространство : YUV
Субдискретизация насыщенности : 4:2:0
Битовая глубина : 8 бит
Тип развёртки : Прогрессивная
Метод сжатия : С потерями
Бит/(Пиксели*Кадры) : 0.087
Размер потока : 833 Мбайт (92%)
Библиотека кодирования : XviD 1.2.1 (UTC 2008-12-04)
Аудио
Идентификатор : 1
Формат : MPEG Audio
Версия формата : Version 1
Профиль формата : Layer 3
Режим : Joint stereo
Расширение режима : MS Stereo
Идентификатор кодека : 55
Идентификатор кодека/Подсказка : MP3
Продолжительность : 58 м.
Вид битрейта : Постоянный
Битрейт : 160 Кбит/сек
Каналы : 2 канала
Частота : 44,1 КГц
Метод сжатия : С потерями
Задержка видео : 40 мс.
Размер потока : 66,9 Мбайт (7%)
Выравнивание : Соединение по промежуткам
Продолжительность промежутка : 26 мс. (0,65 видеокадр)
Время предзагрузки промежутка : 522 мс.
Общее
Полное имя : D:\Кинотеатр\BBC_Genius Of The Ancient World\03. Конфуций - Confucius.avi
Формат : AVI
Формат/Информация : Audio Video Interleave
Размер файла : 908 Мбайт
Продолжительность : 58 м.
Общий поток : 2160 Кбит/сек
Программа кодирования : MEncoder SVN-r33883(20110719-gcc4.5.2)
Библиотека кодирования : MPlayer
Видео
Идентификатор : 0
Формат : MPEG-4 Visual
Профиль формата : Advanced [email protected]
Параметр BVOP формата : 2
Параметр QPel формата : Нет
Параметр GMC формата : Без точки перехода
Параметр матрицы формата : Default (H.263)
Идентификатор кодека : XVID
Идентификатор кодека/Подсказка : XviD
Продолжительность : 58 м.
Битрейт : 1988 Кбит/сек
Ширина : 1280 пикселей
Высота : 720 пикселей
Соотношение сторон : 16:9
Частота кадров : 25,000 кадров/сек
Цветовое пространство : YUV
Субдискретизация насыщенности : 4:2:0
Битовая глубина : 8 бит
Тип развёртки : Прогрессивная
Метод сжатия : С потерями
Бит/(Пиксели*Кадры) : 0.086
Размер потока : 835 Мбайт (92%)
Библиотека кодирования : XviD 1.2.1 (UTC 2008-12-04)
Аудио
Идентификатор : 1
Формат : MPEG Audio
Версия формата : Version 1
Профиль формата : Layer 3
Режим : Joint stereo
Расширение режима : MS Stereo
Идентификатор кодека : 55
Идентификатор кодека/Подсказка : MP3
Продолжительность : 58 м.
Вид битрейта : Постоянный
Битрейт : 160 Кбит/сек
Каналы : 2 канала
Частота : 44,1 КГц
Метод сжатия : С потерями
Задержка видео : 40 мс.
Размер потока : 67,2 Мбайт (7%)
Выравнивание : Соединение по промежуткам
Продолжительность промежутка : 26 мс. (0,65 видеокадр)
Время предзагрузки промежутка : 522 мс.
Скриншоты
Download
Для скачивания .torrent файлов необходима регистрация
Сайт не распространяет и не хранит электронные версии произведений, а лишь предоставляет доступ к создаваемому пользователями каталогу ссылок на торрент-файлы, которые содержат только списки хеш-сумм
[Профиль]  [ЛС] 

Zhyvana

Moderator gray

Стаж: 7 лет 11 месяцев

Сообщений: 2410

Zhyvana · 09-Дек-16 03:13 (спустя 6 дней, ред. 09-Дек-16 03:13)

[Цитировать] 

Hiton_Black
- В заголовке, укажите, пожалуйста, количество серий (выпусков / частей).
- Укажите, пожалуйста, имя режиссера на языке оригинала.
Имя режиссера следует писать как на русском, так и на языке оригинала в заголовке и в оформлении (если имя режиссера на языке оригинала включает в себя иероглифы, то в таких случаях имя режиссера надо писать на английском языке)
  1. О Заголовках ⇒

- Скриншоты не соответствуют заявленному разрешению. Перезалейте, пожалуйста.
  1. О скриншотах ⇒


? Недооформлено

[Профиль]  [ЛС] 

Zhyvana

Moderator gray

Стаж: 7 лет 11 месяцев

Сообщений: 2410

Zhyvana · 11-Дек-16 18:53 (спустя 2 дня 15 часов)

[Цитировать] 

Hiton_Black писал(а):
71945354формат: AVI
Видео: Xvid, 1280x720 (16:9)
Цитата:
- размер кадра превышает 720x544 (в редких случаях 720x576)
  1. Критерии присвоения статусов # сомнительно и T временная ⇒

# Сомнительно

[Профиль]  [ЛС] 

Hiton_Black

Стаж: 8 лет 6 месяцев

Сообщений: 53

Hiton_Black · 12-Дек-16 01:31 (спустя 6 часов)

[Цитировать] 

Zhyvana
Возможно я чего-то не понимаю, но объясните откуда у вас такие цифры?
Цитата:
- размер кадра превышает 720x544 (в редких случаях 720x576)
[Профиль]  [ЛС] 

Aids

VIP (Заслуженный)

Стаж: 8 лет 11 месяцев

Сообщений: 3577

Aids · 14-Дек-16 12:19 (спустя 2 дня 10 часов)

[Цитировать] 

Hiton_Black писал(а):
72012742Zhyvana
Возможно я чего-то не понимаю, но объясните откуда у вас такие цифры?
Из правил.
Ознакомьтесь, пожалуйста:
[Профиль]  [ЛС] 

Hiton_Black

Стаж: 8 лет 6 месяцев

Сообщений: 53

Hiton_Black · 15-Дек-16 01:06 (спустя 12 часов)

[Цитировать] 

Aids писал(а):
72027615
Hiton_Black писал(а):
72012742Zhyvana
Возможно я чего-то не понимаю, но объясните откуда у вас такие цифры?
Из правил.
Ознакомьтесь, пожалуйста:
Я понимаю, что это сказано в правилах, но не понимаю откуда такие цифры относительно этой раздачи?
Цитата:
Видео: Xvid, 1280x720 (16:9), ~2000 Kbps
[Профиль]  [ЛС] 

Aids

VIP (Заслуженный)

Стаж: 8 лет 11 месяцев

Сообщений: 3577

Aids · 15-Дек-16 12:40 (спустя 11 часов)

[Цитировать] 

Hiton_Black писал(а):
Я понимаю, что это сказано в правилах, но не понимаю откуда такие цифры относительно этой раздачи?
Цитата:
Видео: Xvid, 1280x720 (16:9), ~2000 Kbps
Из тех. данных, MI.
[Профиль]  [ЛС] 

61id_one

Стаж: 5 лет 1 месяц

Сообщений: 22


61id_one · 19-Дек-16 22:53 (спустя 4 дня)

[Цитировать] 

В фильме встречаются ошибки, но не знаю, в чём причина - в переводе или в озвучке. Послушайте, например, закадровый перевод в серии "Сократ" с 49-й минуты 20-й секунды. Там неверно указан год суда над Сократом. В целом же фильм хороший, мне очень понравился. Заинтересовался Бетани Хьюз, открыл для себя новое лицо в научпопе, может кому тоже будет интересно: Википедия и Кинопоиск.
Выложившему данный фильм - спасибки!
[Профиль]  [ЛС] 

ramagatutby

Стаж: 2 года 7 месяцев

Сообщений: 25

ramagatutby · 26-Мар-18 17:11 (спустя 1 год 3 месяца, ред. 26-Мар-18 17:11)

[Цитировать] 

ПРИВЕТ ВСЕМ . а подскажите ребята где скачать восемь дней сделавших РИМ ?, ведущая Бетани. (спасибо).. УЖЕ САМ НАШЁЛ ). ВОТ ССЫЛЬ МОЖЕТ КОМУ ПРИГОДИТСЯ..http://rutracker.org/forum/viewtopic.php?t=5523976
[Профиль]  [ЛС] 

rocky4444

Стаж: 5 месяцев 27 дней

Сообщений: 115


rocky4444 · 26-Авг-18 21:57 (спустя 5 месяцев)

[Цитировать] 

Блестящий сериал, В серии про Сократа, Бетани говорила с Пападимитриу, а он автор кучи хороших книг про информатику и логику, был крайне удивлен его узнать)
[Профиль]  [ЛС] 

loversbelost

Стаж: 3 года 4 месяца

Сообщений: 52


loversbelost · 27-Авг-18 13:46 (спустя 15 часов)

[Цитировать] 

На соседнем трекере есть раздача Гении древнего мира 720p mkv на 5 гигабайт. С двумя аудиодорожками - русской и английской.
[Профиль]  [ЛС] 
 
Ответить
Loading...
Error