BBC. Преступники Британии: разбойники, пираты и бандиты (1-3 серия из 3) / BBC. Britain's Outlaws: Highwaymen, Pirates and Rogues (Энди Холл / Andy Hall) [2015, Документальный, познавательный, история, HDTVRip]

Страницы:  1

Ответить
Автор
Сообщение

Alf62

Стаж: 10 лет 3 месяца

Сообщений: 2996

Alf62 · 08-Июл-16 17:30 (2 года 4 месяца назад, ред. 21-Июл-16 13:29)

BBC. Преступники Британии: разбойники, пираты и бандиты (1-3 серия из 3) / BBC. Britain's Outlaws: Highwaymen, Pirates and Rogues
Дата/Год выпуска: 2015
Страна: Великобритания, ВВС
Жанр: Документальный, познавательный, история
Продолжительность: 3 х ~ 00:59:15
Перевод: Профессиональный (дублированный)
Режиссер: Энди Холл / Andy Hall
Описание: Несколько исторических фигур Британии запомнились людям как беззаконники. Благодаря своим дерзким выходкам и романтике жизни вне закона разбойники, удалые пираты, неуловимые городские воры и бандиты стали самыми известными антигероями своего времени. Их боялись богачи, ими восхищались бедные, а писатели посвящали им книги. В этом трехсерийном фильме доктор исторических наук Сэм Уиллис отправится в путешествие по дорогам, морям и кривым улочкам, чтобы исследовать тайную жизнь разбойников, пиратов и бандитов Британии XVII-XVIII веков. Сэм покажет нам, что беззаконники - это не просто изгнанники, а ещё и продукт своего времени, созданный ключевыми социальными событиями. В каждом выпуске Сэм будет подробно рассказывать не только о каком-то определённом персонаже, а о целой эре, благодаря чему мы получим более точную картину преступной жизни XVII-XVIII веков.
Доп. информация: Авторство релиза - alf62

качество: HDTVRip
формат: AVI
Видео: 720x400 (1.80:1), 25 fps, XviD build 73 ~1800 kbps avg, 0.25 bit/pixel
Аудио: 48 kHz, AC3 Dolby Digital, 2/0 (L,R) ch, ~192.00 kbps avgBBC. Преступники Британии: разбойники, пираты и бандиты на rutracker.cr
Список выпусков/серий
1. Разбойники / Highwaymen
Доктор Сэм Уиллис расскажет нам о новом виде преступников-джентльменов, о разбойниках с большой дороги. Их романтизировали больше всего, эти пафосные гангстеры стали настоящим проклятием дорог.
2. Пираты / Pirates
Доктор Сэм Уиллис отправляется покорять моря, как это делали удалые пираты в свой золотой XVIII век. Он постарается узнать подробнее, что именно делало их самыми разыскиваемыми преступниками в мире.
3. Мошенники / Rogues
В этой серии доктор Сэм Уиллис прольёт нам свет на городскую чуму XVIII века, о мошенниках всех мастей - об обольстителях, бандитах и ворах.
MediaInfo
Преступники.Британии.(1.серия.из.3).Разбойники.2015.XviD.HDTVRip.alf62.avi
Формат : AVI
Формат/Информация : Audio Video Interleave
Размер файла : 848 Мбайт
Продолжительность : 59 м.
Общий поток : 2002 Кбит/сек
Программа кодирования : VirtualDubModRus 1.5.10.2 (build 2542/release)
Библиотека кодирования : VirtualDubMod build 2542/release
Видео
Идентификатор : 0
Формат : MPEG-4 Visual
Профиль формата : Advanced [email protected]
Параметр BVOP формата : 1
Параметр QPel формата : Нет
Параметр GMC формата : Без точки перехода
Параметр матрицы формата : Выборочная
Идентификатор кодека : XVID
Идентификатор кодека/Подсказка : XviD
Продолжительность : 59 м.
Битрейт : 1800 Кбит/сек
Ширина : 720 пикселей
Высота : 400 пикселей
Соотношение сторон : 16:9
Частота кадров : 25,000 кадров/сек
Цветовое пространство : YUV
Субдискретизация насыщенности : 4:2:0
Битовая глубина : 8 бит
Тип развёртки : Прогрессивная
Метод сжатия : С потерями
Бит/(Пиксели*Кадры) : 0.250
Размер потока : 763 Мбайт (90%)
Библиотека кодирования : XviD 73
Аудио
Идентификатор : 1
Формат : AC-3
Формат/Информация : Audio Coding 3
Идентификатор кодека : 2000
Продолжительность : 59 м.
Вид битрейта : Постоянный
Битрейт : 192 Кбит/сек
Каналы : 2 канала
Частота : 48,0 КГц
Метод сжатия : С потерями
Размер потока : 81,4 Мбайт (10%)
Выравнивание : Разделение по промежуткам
Продолжительность промежутка : 40 мс. (1,00 видеокадр)
Время предзагрузки промежутка : 500 мс.
Скриншоты
Download
Для скачивания .torrent файлов необходима регистрация
Сайт не распространяет и не хранит электронные версии произведений, а лишь предоставляет доступ к создаваемому пользователями каталогу ссылок на торрент-файлы, которые содержат только списки хеш-сумм
[Профиль]  [ЛС] 

natali1937

Стаж: 10 лет 6 месяцев

Сообщений: 500

natali1937 · 09-Июл-16 00:26 (спустя 6 часов)

[Цитировать] 

спасибо за релиз. а вы не записывали случаем 7 серийную передачу "Эхо Войны", которое пару недель назад транслировали?
[Профиль]  [ЛС] 

Alf62

Стаж: 10 лет 3 месяца

Сообщений: 2996

Alf62 · 12-Июл-16 23:58 (спустя 3 дня)

[Цитировать] 

Внимание!
Добавлена 2 серия:
2. Пираты / Pirates
[Профиль]  [ЛС] 

Анна57

Стаж: 7 лет 8 месяцев

Сообщений: 167


Анна57 · 20-Июл-16 18:23 (спустя 7 дней)

[Цитировать] 

А что с третьей серией?
[Профиль]  [ЛС] 

Alf62

Стаж: 10 лет 3 месяца

Сообщений: 2996

Alf62 · 20-Июл-16 22:35 (спустя 4 часа, ред. 20-Июл-16 22:35)

[Цитировать] 

Внимание!
Добавлена 3 серия:
3. Мошенники / Rogues
[Профиль]  [ЛС] 

raia.11

Стаж: 7 лет 10 месяцев

Сообщений: 30


raia.11 · 21-Июл-16 10:27 (спустя 11 часов)

[Цитировать] 

3-я серия без русского перевода
[Профиль]  [ЛС] 

Alf62

Стаж: 10 лет 3 месяца

Сообщений: 2996

Alf62 · 21-Июл-16 13:28 (спустя 3 часа)

[Цитировать] 

raia.11 писал(а):
710889493-я серия без русского перевода
Перезалил с русским переводом.
Прошу прощения, за доставленные неудобства...
[Профиль]  [ЛС] 
 
Ответить
Loading...
Error