[TR24][OF] The Menuhin Century: Yehudi Menuhin - Showpieces (Sarasate, Granados, Falla, Kreisler) (Reissue) - 2016 (Classical)

Страницы:  1

Ответить
Автор
Сообщение

papa1954

Top Seed 09* 10240r

Стаж: 11 лет 9 месяцев

Сообщений: 16656

papa1954 · 11-Май-16 15:38 (2 года 7 месяцев назад, ред. 14-Май-16 23:22)

The Menuhin Century: Yehudi Menuhin - Showpieces (Sarasate, Granados, Falla, Kreisler) Формат записи/Источник записи: [TR24][OF]
Наличие водяных знаков: Нет
Издание: Reissue
Год издания/переиздания диска: 2016
Жанр: Classical
Издатель(лейбл): Warner Classics
Продолжительность: 51:56
Наличие сканов в содержимом раздачи: Только обложка альбома
Композиторы: Pablo de Sarasate; Fritz Kreisler; Enrique Granados; Manuel de Falla
Исполнитель: Yehudi Menuhin
Треклист:
Pablo Martin de Sarasate (1844-1908)
01. Caprice basque, Op. 24 (4:03)
02. 8 Danzas españolas: No. 1 Malagueña, Op. 21 No. 1 (4:58)
03. 8 Danzas españolas: No. 2 Habanera, Op. 21 No. 2 (3:34)
04. 8 Danzas españolas: No. 3 Romanza andaluza, Op. 22 No. 1 (4:46)
05. 8 Danzas españolas: No. 6 Zapateado, Op. 23 No. 2 (3:20)
Fritz Kreisler (1875-1962)
06. Caprice viennois, Op. 2 (3:47)
07. Tambourin chinois, Op. 3 (3:14)
08. 3 Old Viennese Dances: No. 3 Schön Rosmarin (1:50)
09. Praeludium and Allegro (in the style of Pugnani) (5:50)
10. La Chasse (in the style of Cartier) (2:01)
11. Sicilienne and Rigaudon (in the style of Francoeur) (3:37)
12. Recitativo und Scherzo-Caprice, Op. 6 (4:40)
Enrique Granados (1867-1916)
13. 12 Danzas españolas, Op. 37 No. 5 Andaluza (3:01)
Manuel de Falla (1876-1946)
14. Danse espagnole (from La vida breve) (3:14)
Yehudi Menuhin - violin
Marcel Gazelle - piano (1, 3-10, 12)
Hendrik Endt - piano (2)
Artur Balsam - piano (11, 14)
Ferguson Webster - piano (13)
 

Контейнер: FLAC (*.flac)
Тип рипа: tracks
Разрядность: 24/96
Количество каналов: 2.0
Лог проверки качества
foobar2000 1.3.9 / Dynamic Range Meter 1.1.1
log date: 2016-05-11 14:10:00
--------------------------------------------------------------------------------
Analyzed: Yehudi Menuhin / Yehudi Menuhin: Showpieces
--------------------------------------------------------------------------------
DR Peak RMS Duration Track
--------------------------------------------------------------------------------
DR14 -4.71 dB -23.91 dB 4:03 01-Caprice basque, Op. 24
DR14 -7.93 dB -26.99 dB 4:58 02-8 Danzas españolas: No. 1 Malagueña, Op. 21 No. 1
DR15 -3.50 dB -24.97 dB 3:34 03-8 Danzas españolas: No. 2 Habanera, Op. 21 No. 2
DR14 -9.43 dB -27.06 dB 4:46 04-8 Danzas españolas: No. 3 Romanza andaluza, Op. 22 No. 1
DR13 -3.46 dB -21.75 dB 3:20 05-8 Danzas españolas: No. 6 Zapateado, Op. 23 No. 2
DR12 -10.17 dB -26.31 dB 3:47 06-Caprice viennois, Op. 2
DR14 -7.19 dB -25.34 dB 3:14 07-Tambourin chinois, Op. 3
DR12 -5.54 dB -23.08 dB 1:50 08-3 Old Viennese Dances: No. 3 Schön Rosmarin
DR14 -4.96 dB -22.68 dB 5:50 09-Praeludium and Allegro (in the style of Pugnani)
DR16 -4.14 dB -24.02 dB 2:01 10-La Chasse (in the style of Cartier)
DR12 -5.00 dB -22.24 dB 3:37 11-Sicilienne and Rigaudon (in the style of Francoeur)
DR14 -7.20 dB -26.13 dB 4:40 12-Recitativo und Scherzo-Caprice, Op. 6
DR14 -6.37 dB -24.98 dB 3:01 13-12 Danzas españolas, Op. 37 No. 5 Andaluza
DR15 -5.35 dB -23.25 dB 3:14 14-Danse espagnole (from La vida breve)
--------------------------------------------------------------------------------
Number of tracks: 14
Official DR value: DR14
Samplerate: 96000 Hz
Channels: 2
Bits per sample: 24
Bitrate: 2195 kbps
Codec: FLAC
================================================================================
Скриншот спектра частот
Источник: hdtracks.com

Download
Для скачивания .torrent файлов необходима регистрация
Сайт не распространяет и не хранит электронные версии произведений, а лишь предоставляет доступ к создаваемому пользователями каталогу ссылок на торрент-файлы, которые содержат только списки хеш-сумм
[Профиль]  [ЛС] 
 
Ответить
Loading...
Error