Люди икс / X-Men [TV] [12 из 12] [Без хардсаба] [RUS(int)] [2011, боевик, приключения, фантастика, SATRip]

Страницы:  1

Ответить
Автор
Сообщение

Zwery

Стаж: 9 лет 1 месяц

Сообщений: 142

Zwery · 24-Апр-16 17:28 (2 года 2 месяца назад, ред. 06-Май-16 01:27)

Люди икс / X-Men
Страна: Япония
Год выпуска: 2011 г.
Жанр: боевик, приключения, фантастика
Тип: TV
Продолжительность: 12 эп. по 22 мин.
Режиссер: Кидзаки Фуминори
Студия: MADHOUSE
Перевод: Двухголосый [Студия Позитив]
Описание:
Эволюция продолжается! Среди homo sapiens постепенно появляется новая раса с необычными способностями – кто-то овладел стихиями, обрел невероятную силу и скорость, другие читают мысли или проходят сквозь стены. Страх, любопытство, неприятие, агрессия – вот реакция обычных людей на тех, чье существование перестало быть секретом для публики. Власть имущие ищут контроль над мутантами, некоторые мутанты открыто заявляют, что раз они «следующая ступень», то надо объединиться и править «людишками». Лишь небольшая группа одаренных озабочена не властью или личной выгодой, а поиском согласия в новом мире, помощью людям и себе подобным. Их зовут просто – «Люди Икс».
После многих битв, великих побед и горьких неудач, группа профессора Ксавье рассеялась. Но вот очередной тревожный сигнал приходит (конечно же!) из Японии, и краткое расследование показывает, что беда грозит не отдельным лицам, а судьбам мира. А это значит, что Циклопу, Шторм, Зверю и Росомахе пора вновь садиться в иксоплан и лететь на острова, в район Тохоку, где они нужнее всего. За исчезновением юной мутантки Хисако просматриваются корни куда более зловещего заговора. Но кто сомневается в успехе? Япония еще не видела подобного нашествия западных супергероев!
© Hollow, World Art
Качество: SATRip
Тип релиза: Без хардсаба
Формат видео: TS
Релиз/Автор рипа: Zwery
Видео: MPEG2, 8 бит, 720х576, ~3110 Kbps, 25.000 fps
Аудио: MPEG, 192 Kbps, 48000 KHz, 2 ch [Стерео] - Язык Русский (в составе контейнера)
Внимание!
При репосте или использовании данных записей на других ресурсах наличие автора рипа обязательно!
Если понадобятся исходные в формате "TS" записи этого аниме, я готов их предоставить вам. Пишите в личные сообщения по этому поводу.
Дополнительная информация
Данное аниме записывалось с часовой версии ТВ3 (+7ч).
В 8 серии по непонятной причине серию показали обрезанную до 4:3:
скрытый текст
Остальные серии в 4:3 с полосами сверху и снизу:
скрытый текст
Подробные тех. данные
General
ID : 1 (0x1)
Complete name : E:\Аниме\X-Men.S01E01-12.MPEG2.2011.SATRip\X-Men.S01E01.The.Return-Joining.Forces.MPEG2.2011.SATRip.ts
Format : MPEG-TS
File size : 562 MiB
Duration : 22mn 35s
Overall bit rate mode : Variable
Overall bit rate : 3 476 Kbps
Video
ID : 1281 (0x501)
Menu ID : 1 (0x1)
Format : MPEG Video
Format version : Version 2
Format profile : [email protected]
Format settings, BVOP : Yes
Format settings, Matrix : Custom
Format settings, GOP : Variable
Format settings, picture st : Frame
Codec ID : 2
Duration : 22mn 35s
Bit rate mode : Variable
Bit rate : 3 110 Kbps
Maximum bit rate : 15.0 Mbps
Width : 720 pixels
Height : 576 pixels
Display aspect ratio : 4:3
Frame rate : 25.000 fps
Standard : PAL
Color space : YUV
Chroma subsampling : 4:2:0
Bit depth : 8 bits
Scan type : Interlaced
Scan order : Top Field First
Compression mode : Lossy
Bits/(Pixel*Frame) : 0.300
Time code of first frame : 00:00:00:00
Time code source : Group of pictures header
GOP, Open/Closed : Open
GOP, Open/Closed of first f : Closed
Stream size : 503 MiB (89%)
Audio
ID : 1282 (0x502)
Menu ID : 1 (0x1)
Format : MPEG Audio
Format version : Version 1
Format profile : Layer 2
Codec ID : 3
Duration : 22mn 35s
Bit rate mode : Constant
Bit rate : 192 Kbps
Channel(s) : 2 channels
Sampling rate : 48.0 KHz
Compression mode : Lossy
Delay relative to video : 12ms
Stream size : 31.0 MiB (6%)
Language : English
Список эпизодов
01. The Return - Joining Forces
02. U-Men - Mutant Hunting
03. Armor - Awakening
04. Transformation - Secondary Mutation
05. Power - Unity
06. Conflict - Fierce Fight
07. Betrayal - Shock
08. Lost - Omen
09. Revelations - From Behind the Scenes
10. Countdown - Truth
11. Revenge - The End
12. Destiny - Connections
Скриншоты
Download
Для скачивания .torrent файлов необходима регистрация
Сайт не распространяет и не хранит электронные версии произведений, а лишь предоставляет доступ к создаваемому пользователями каталогу ссылок на торрент-файлы, которые содержат только списки хеш-сумм
[Профиль]  [ЛС] 
 
Ответить
Loading...
Error