[TR24][SM][OF] Marjan Mozetich, Steve Reich, John Cage, Antoine Bareil, Gentle Giant, Frank Zappa - Orbis (Valerie Milot; Les Violons du Roy, Mathieu Lussier) - 2016 (Classical)

Страницы:  1

Ответить
Автор
Сообщение

kasatkal

Moderator

Стаж: 10 лет 2 месяца

Сообщений: 12023

kasatkal · 08-Мар-16 13:29 (2 года 6 месяцев назад)

Marjan Mozetich, Steve Reich, John Cage, Antoine Bareil, Gentle Giant, Frank Zappa - Orbis
Композитор: Marjan Mozetich, Steve Reich, John Cage, Antoine Bareil, Gentle Giant, Frank Zappa
Год издания: 2016
Жанр: Classical
Издатель (лейбл)/ссылка на официальность: Groupe Analekta, Inc
Продолжительность: 00:53:08
Наличие сканов: да
Контейнер: FLAC (*.flac)
Тип рипа: tracks
Разрядность: 24bit / 96,0kHz
Количество каналов: 2.0
Источник: приобретено из сети
Исполнители:
Valerie Milot
Les Violons du Roy,
Mathieu Lussier
Треклист:
Marjan Mozetich
01. El Dorado (15:23)
Steve Reich
Electric Counterpoint:
02. I. Fast (06:51)
03. II. Slow (03:22)
04. III. Fast (04:30)
John Cage (1912-1992)
05. In a Landscape (09:20)
Antoine Bareil
06. Castille 1382 (05:58)
Gentle Giant
07. As Old as You’re Young (04:20)
Frank Zappa
08. G-Spot Tornado (03:24)
Динамический диапазон - DR11:
foobar2000 1.3.2 / Замер динамического диапазона (DR) 1.1.1
Дата отчёта: 2016-03-08 13:49:15
--------------------------------------------------------------------------------
Анализ: Valerie Milot / ORBIS
--------------------------------------------------------------------------------
DR Пики RMS Продолжительность трека
--------------------------------------------------------------------------------
DR14 -0.21 дБ -18.92 дБ 15:23 01-El Dorado
DR8 -1.21 дБ -13.43 дБ 6:51 02-Electric Counterpoint: I. Fast
DR10 -2.30 дБ -14.92 дБ 3:22 03-Electric Counterpoint: II. Slow
DR11 -1.21 дБ -15.50 дБ 4:30 04-Electric Counterpoint: III. Fast
DR15 -2.78 дБ -23.43 дБ 9:20 05-In a Landscape
DR13 -3.36 дБ -22.24 дБ 5:58 06-Castille 1382
DR11 -0.20 дБ -14.01 дБ 4:20 07-As Old as You’re Young
DR10 -1.74 дБ -13.67 дБ 3:24 08-G-Spot Tornado
--------------------------------------------------------------------------------
Количество треков: 8
Реальные значения DR: DR11
Частота: 96000 Гц
Каналов: 2
Разрядность: 24
Битрейт: 2546 кбит/с
Кодек: FLAC
================================================================================
Cпектры частот

Download
Для скачивания .torrent файлов необходима регистрация
Сайт не распространяет и не хранит электронные версии произведений, а лишь предоставляет доступ к создаваемому пользователями каталогу ссылок на торрент-файлы, которые содержат только списки хеш-сумм
[Профиль]  [ЛС] 

ФОМА66

Стаж: 11 лет 1 месяц

Сообщений: 883

ФОМА66 · 10-Мар-16 02:24 (спустя 1 день 12 часов)

[Цитировать] 

kasatkal
Спасибо!
Прекрасный альбом.
[Профиль]  [ЛС] 

Roitreeprom

Стаж: 3 года 6 месяцев

Сообщений: 24

Roitreeprom · 06-Июн-16 16:33 (спустя 2 месяца 27 дней)

[Цитировать] 

Excellent Contribution!
[Профиль]  [ЛС] 

Pupsik2005

Стаж: 8 лет 4 месяца

Сообщений: 56


Pupsik2005 · 10-Янв-17 10:16 (спустя 7 месяцев, ред. 10-Янв-17 10:16)

[Цитировать] 

Спасибо !Отлично!
[Профиль]  [ЛС] 

qportyha

Стаж: 3 года 8 месяцев

Сообщений: 57


qportyha · 23-Окт-17 22:57 (спустя 9 месяцев)

[Цитировать] 

Благодарю!
[Профиль]  [ЛС] 

Frederick Krueger

Стаж: 1 год 10 месяцев

Сообщений: 5


Frederick Krueger · 09-Июн-18 22:27 (спустя 7 месяцев)

[Цитировать] 

Спасибо, послушаем.
[Профиль]  [ЛС] 

DrGyger

Стаж: 9 лет 1 месяц

Сообщений: 48

DrGyger · 31-Июл-18 07:33 (спустя 1 месяц 21 день)

[Цитировать] 

Обалденнейшая запись, я в восторге!
[Профиль]  [ЛС] 
 
Ответить
Loading...
Error