Разгром немецких войск под Москвой (Леонид Варламов, Илья Копалин) [1942, документальный, кинохроника, DVDRip]

Страницы:  1

Ответить
Автор
Сообщение

tеko

Moderator

Стаж: 9 лет 8 месяцев

Сообщений: 15958

tеko · 29-Фев-16 08:52 (2 года 5 месяцев назад)

Разгром немецких войск под Москвой

Дата/Год выпуска: 1942
Страна: СССР
Жанр: документальный, кинохроника
Продолжительность: 01:09:06
Перевод: Не требуется

Режиссер: Леонид Варламов, Илья Копалин
Описание: В ноябре 1941 года Сталин решил начать снимать документальный фильм о боях под Москвой. Были определены два режиссёра: Леонид Варламов и Илья Копалин. В съёмках принимали участие пятнадцать фронтовых операторов. Картина построена на документальных съёмках Москвы и Подмосковья во время строительства заградительных сооружений, работы оборонительных заводов, военных действий, освобождения подмосковных городов и деревень. Картина запечатлела героизм людей при обороне Москвы, масштабность разрушений и потерь. Работа советских документалистов получила заслуженное признание. Фильм был удостоен Сталинской премии I степени.
В США «Разгром» был перемонтирован, переозвучен, сокращён на 10 минут и выпущен под названием “Moscow Strikes Back”, которое у нас обычно не вполне точно переводят как «Москва наносит ответный удар». В таком виде его и смотрели американские киноакадемики, и советская кинолента впервые получила премию «Оскар» за лучший документальный полнометражный фильм (1943).

качество: DVDRip
формат: AVI
Видео: 624x480 (1.30:1), 23.976 fps, XviD build 73 ~1301 kbps avg, 0.18 bit/pixel
Аудио: 48 kHz, AC3 Dolby Digital, 2/0 (L,R) ch, ~192 kbps

MediaInfo
Общее
Полное имя : H:\Разгром.немецких.войск.под.Москвой.1942.dvdrip_[745]_[teko].avi
Формат : AVI
Формат/Информация : Audio Video Interleave
Размер файла : 743 Мбайт
Продолжительность : 1 ч. 9 м.
Общий поток : 1503 Кбит/сек
Программа кодирования : VirtualDubMod 1.5.10.3 | www.virtualdub-fr.org || (build 2550/release)
Библиотека кодирования : VirtualDubMod build 2550/release
Видео
Идентификатор : 0
Формат : MPEG-4 Visual
Профиль формата : Advanced [email protected]
Параметр BVOP формата : 2
Параметр QPel формата : Нет
Параметр GMC формата : Без точки перехода
Параметр матрицы формата : Выборочная
Идентификатор кодека : XVID
Идентификатор кодека/Подсказка : XviD
Продолжительность : 1 ч. 9 м.
Битрейт : 1301 Кбит/сек
Ширина : 624 пикселя
Высота : 480 пикселей
Соотношение сторон : 4:3
Частота кадров : 23,976 кадра/сек
Цветовое пространство : YUV
Субдискретизация насыщенности : 4:2:0
Битовая глубина : 8 бит
Тип развёртки : Прогрессивная
Метод сжатия : С потерями
Бит/(Пиксели*Кадры) : 0.181
Размер потока : 643 Мбайт (87%)
Библиотека кодирования : XviD 73
Аудио
Идентификатор : 1
Формат : AC-3
Формат/Информация : Audio Coding 3
Расширение режима : CM (complete main)
Параметр Endianness формата : Big
Идентификатор кодека : 2000
Продолжительность : 1 ч. 9 м.
Вид битрейта : Постоянный
Битрейт : 192 Кбит/сек
Каналы : 2 канала
Расположение каналов : Front: L R
Частота : 48,0 КГц
Битовая глубина : 16 бит
Метод сжатия : С потерями
Размер потока : 94,9 Мбайт (13%)
Выравнивание : Разделение по промежуткам
Продолжительность промежутка : 42 мс. (1,00 видеокадр)
Время предзагрузки промежутка : 500 мс.
Скриншоты
Релиз группы:


Download
Для скачивания .torrent файлов необходима регистрация
Сайт не распространяет и не хранит электронные версии произведений, а лишь предоставляет доступ к создаваемому пользователями каталогу ссылок на торрент-файлы, которые содержат только списки хеш-сумм
[Профиль]  [ЛС] 
 
Ответить
Loading...
Error