В подземелье я пойду, там красавицу найду! / Dungeon ni Deai o Motomeru no wa Machigatte Iru Darouka: Familia Myth / Danmachi (Ямакава Ёсики) [TV] [13 из 13] [без хардсаба] [RUS(ext), JAP+SUB] [2015, фэнтези, романтика, BDRip]

Страницы:  1

Ответить
Автор
Сообщение

jensen123321

Top Seed 01* 40r

Стаж: 8 лет 4 месяца

Сообщений: 686

jensen123321 · 04-Фев-16 02:05 (2 года 7 месяцев назад, ред. 04-Фев-16 02:49)


Страна: Япония
Год выпуска: 2015 г.
Жанр: фэнтези, романтика
Тип: TV
Продолжительность: 13 эп. по 25 мин
Режиссер: Ямакава Ёсики
Студия: J.C. Staff
Перевод:
Русские субтитры от Shift & Timecraft & Ambiente (полные) | Внешние.
редакторы: Koushin, Матадор, переводчик: Evafan Satin
Описание: Богам стало скучно, и они сошли в мир, оставив себе минимум атрибутов божественности – бессмертие, предвидение и чуточку силы, чтобы поддерживать своих последователей. Город Орарио, где высится огромный донжон, работает на искателей приключений самых разных рас, которые собираются в кланы, возглавляемые многочисленными богами. Отдельной силой в городе является Гильдия – она и банк, и обменное бюро, и биржа. Боги же навек избавились от скуки: ведь кроме руководства кланом, можно развивать бизнес, творить интриги, отбирать чужие человеческие игрушки – в общем, вести нормальную полноценную жизнь.
Клан Гестии, увы, невелик – сама богиня, принявшая облик юной девы, и молодой Белл, блондин с красными глазами. Когда-то Белл подался в приключенцы, чтобы бегать по уровням, бить монстров и знакомиться с девушками – и цели достиг, влюбившись по уши в Айз, «принцессу мечей» из клана Локи. Пока что герой для своей избранницы явно слабоват, зато у Белла появился повод развиваться, у Гестии – ревновать, у самой Айз – пожимать плечами, а у половины города – активно болеть за молодежь. Это еще ничего, а вот когда в дело вмешивается злокозненная богиня любви Фрейя – становится по-настоящему интересно!
© Hollow, World Art
Доп. информация: Название сериала можно перевести как «Разве плохо знакомиться/искать встречи в донжонах?» Подзаголовок аниме Familia Myth значит «миф о семьях» или «миф о кланах».
Качество: BDRip (DS of VCB-Studio)
Тип релиза: Без хардсаба, без линковки
Формат видео: MKV
Видео: x264 (8bit), 852x480, ~1904 Kbps, 23.976 fps
Аудио JAP: Vorbis, 48000Hz, ~256 Kbps, 2ch (В контейнере)
Аудио RUS 1-3: AC3, 48000Hz, ~192 Kbps, 2ch (внешними файлами)
Лог кодирования
x264 [info]: 852x480p 0:0 @ 24000/1001 fps (cfr)
x264 [info]: color matrix: bt709
x264 [info]: using cpu capabilities: MMX2 SSE2Fast SSSE3 Cache64 SlowShuffle
x264 [info]: profile High, level 4.0
x264 [info]: cabac=1 ref=16 deblock=1:0:0 analyse=0x3:0x113 me=umh subme=9 psy=1 fade_compensate=0.00 psy_rd=0.40:0.00 mixed_ref=1 me_range=32 chroma_me=1 trellis=1 8x8dct=1 cqm=0 deadzone=21,11 fast_pskip=1 chroma_qp_offset=-2 threads=4 lookahead_threads=1 sliced_threads=0 nr=0 decimate=1 interlaced=0 bluray_compat=0 constrained_intra=0 fgo=0 bframes=16 b_pyramid=2 b_adapt=2 b_bias=0 direct=1 weightb=1 open_gop=0 weightp=1 keyint=240 keyint_min=23 scenecut=40 intra_refresh=0 rc=crf mbtree=0 crf=12.0000 qcomp=0.70 qpmin=10:10:10 qpmax=51:51:51 qpstep=4 ip_ratio=1.40 pb_ratio=1.30 aq=1:1.00 aq-sensitivity=10.00 aq-factor=1.00:1.00:1.00 aq2=0 aq3=0
x264 [info]: started at Wed Dec 23 23:23:02 2015
x264 [info]: frame I:351 Avg QP:11.29 size: 72085
x264 [info]: frame P:6705 Avg QP:11.59 size: 13720
x264 [info]: frame B:28480 Avg QP:12.13 size: 2669
x264 [info]: consecutive B-frames: 2.7% 3.1% 5.2% 16.5% 10.7% 18.0% 9.3% 9.3% 4.5% 3.9% 3.0% 4.0% 1.5% 1.7% 1.3% 2.3% 3.1%
x264 [info]: mb I I16..4: 21.6% 34.2% 44.2%
x264 [info]: mb P I16..4: 1.3% 3.4% 3.0% P16..4: 19.7% 7.8% 9.1% 0.0% 0.0% skip:55.7%
x264 [info]: mb B I16..4: 0.1% 0.5% 0.3% B16..8: 9.2% 3.0% 1.5% direct: 1.2% skip:84.1% L0:46.0% L1:45.4% BI: 8.6%
x264 [info]: 8x8 transform intra:42.7% inter:59.4%
x264 [info]: coded y,uvDC,uvAC intra: 82.6% 78.6% 69.5% inter: 8.5% 5.6% 2.6%
x264 [info]: i16 v,h,dc,p: 26% 27% 11% 36%
x264 [info]: i8 v,h,dc,ddl,ddr,vr,hd,vl,hu: 14% 23% 17% 6% 6% 6% 8% 7% 12%
x264 [info]: i4 v,h,dc,ddl,ddr,vr,hd,vl,hu: 18% 21% 9% 7% 9% 8% 9% 8% 10%
x264 [info]: i8c dc,h,v,p: 38% 36% 20% 6%
x264 [info]: Weighted P-Frames: Y:4.1% UV:3.0%
x264 [info]: ref P L0: 63.1% 11.7% 7.9% 3.3% 2.8% 2.1% 1.9% 1.2% 1.1% 0.9% 0.8% 0.7% 0.7% 0.7% 1.0% 0.2%
x264 [info]: ref B L0: 60.9% 12.5% 7.5% 4.3% 3.1% 2.4% 2.1% 1.4% 1.2% 1.1% 1.0% 0.9% 0.8% 0.5% 0.3%
x264 [info]: ref B L1: 90.1% 9.9%
x264 [info]: kb/s:1043.40
x264 [info]: encoded 35536 frames, 3.327 fps, 1043.40 kb/s, 184.35 MB
x264 [info]: ended at Thu Dec 24 02:21:02 2015
x264 [info]: encoding duration 2:58:00
Подробные тех. данные
Общее
Уникальный идентификатор : 175322400979380044811202745479207347164 (0x83E5DDBF12E71FE6B4498B442D4463DC)
Полное имя : E:\BDRIP480\Danmachi [BDrip 852x480 x264 Vorbis]\Danmachi 01 [BDrip 852x480 x264 Vorbis].mkv
Формат : Matroska
Версия формата : Version 4 / Version 2
Размер файла : 347 Мбайт
Продолжительность : 23 м.
Режим общего битрейта : Переменный
Общий поток : 2046 Кбит/сек
Дата кодирования : UTC 2016-01-16 20:28:22
Программа кодирования : mkvmerge v7.1.0 ('Good Love') 64bit built on Jul 27 2014 13:06:55
Библиотека кодирования : libebml v1.3.0 + libmatroska v1.4.1
Видео
Идентификатор : 1
Формат : AVC
Формат/Информация : Advanced Video Codec
Профиль формата : [email protected]
Параметр CABAC формата : Да
Параметр ReFrames формата : 16 кадров
Идентификатор кодека : V_MPEG4/ISO/AVC
Продолжительность : 23 м.
Битрейт : 1804 Кбит/сек
Ширина : 852 пикселя
Высота : 480 пикселей
Соотношение сторон : 16:9
Режим частоты кадров : Постоянный
Частота кадров : 23,976 (24000/1001) кадра/сек
Цветовое пространство : YUV
Субдискретизация насыщенности : 4:2:0
Битовая глубина : 8 бит
Тип развёртки : Прогрессивная
Бит/(Пиксели*Кадры) : 0.184
Размер потока : 306 Мбайт (88%)
Библиотека кодирования : x264 core 142 r2431+42 c69a006 tMod [[email protected] X86_64]
Настройки программы : cabac=1 / ref=16 / deblock=1:0:0 / analyse=0x3:0x113 / me=umh / subme=9 / psy=1 / fade_compensate=0.00 / psy_rd=0.40:0.00 / mixed_ref=1 / me_range=32 / chroma_me=1 / trellis=1 / 8x8dct=1 / cqm=0 / deadzone=21,11 / fast_pskip=1 / chroma_qp_offset=-2 / threads=4 / lookahead_threads=1 / sliced_threads=0 / nr=0 / decimate=1 / interlaced=0 / bluray_compat=0 / constrained_intra=0 / fgo=0 / bframes=16 / b_pyramid=2 / b_adapt=2 / b_bias=0 / direct=1 / weightb=1 / open_gop=0 / weightp=1 / keyint=240 / keyint_min=23 / scenecut=40 / intra_refresh=0 / rc=crf / mbtree=0 / crf=12.0000 / qcomp=0.70 / qpmin=10:10:10 / qpmax=51:51:51 / qpstep=4 / ip_ratio=1.40 / pb_ratio=1.30 / aq=1:1.00 / aq-sensitivity=10.00 / aq-factor=1.00:1.00:1.00 / aq2=0 / aq3=0
Default : Да
Forced : Нет
Цветовой диапазон : Limited
Основные цвета : BT.709
Характеристики трансфера : BT.709
Коэффициенты матрицы : BT.709
Аудио
Идентификатор : 2
Формат : Vorbis
Параметр Floor формата : 1
Идентификатор кодека : A_VORBIS
Продолжительность : 23 м.
Вид битрейта : Переменный
Битрейт : 256 Кбит/сек
Каналы : 2 канала
Частота : 48,0 КГц
Частота кадров : 113,978 кадров/сек (421 spf)
Detected bit depth : 24 бит
Метод сжатия : С потерями
Размер потока : 40,4 Мбайт (12%)
Библиотека кодирования : aoTuV 20110424 (UTC 2011-04-24)
Default : Да
Forced : Нет
Список эпизодов
01. Bell Cranel: Adventurer
02. Monsterphilia: Monster Festival
03. Hestia Knife: The Blade of a God
04. Supporter: The Weak
05. Grimoire: Magic Book
06. Liliruca Arde: Reason
07. Aiz Wallenstein: Sword Princess
08. Argonaut: Wanting to Be a Hero
09. Welf Crozzo: Blacksmith
10. Pass Parade: Procession of Monsters
11. Under Resort: Labyrinth Utopia
12. Show: Evil Intentions
13. Familia Myth: The Story of a Familia
Список озвучек в раздаче
двухголосая (муж./жен.) от Absurd & Eladiel (Onibaku)
двухголосая (муж./жен.) от Metacarmex & Say (Anilibria)
двухголосая (муж./жен.) от Mistake & Kira Ksyll (Opendub)
Скриншоты
Информация о релизе
В случае появления нового материала или же лучшего по качеству материала релизер оставляет за собой право обновить раздачу. В этом случае вам необходимо ознакомиться с изменениями (добавлениями) и перекачать торрент.
Данный релиз предназначен для просмотра с внешними звуковыми дорожками и субтитрами. Как это сделать в разных плеерах подробно описано здесь.
Для просмотра с внешней звуковой дорожкой или субтитрами нужно:
перекинуть файлы .mka из папки "RUS Sound [<автор(ы) озвучки>]" в одну папку с видео и переключить звуковую дорожку в плеере при просмотре, для субтитров - перекинуть фаил субтитров .ass из папки "RUS sub [<автор(ы) субтитров>]" в одну папку с видео и подключить их в плеере при просмотре.
Озвучка и субтитры взяты из этой раздачи
.
Download
Для скачивания .torrent файлов необходима регистрация
Сайт не распространяет и не хранит электронные версии произведений, а лишь предоставляет доступ к создаваемому пользователями каталогу ссылок на торрент-файлы, которые содержат только списки хеш-сумм
[Профиль]  [ЛС] 

Rumiko

VIP (Заслуженный)

Стаж: 10 лет 8 месяцев

Сообщений: 4132

Rumiko · 04-Фев-16 11:20 (спустя 9 часов, ред. 18-Дек-16 10:52)

[Цитировать] 

скрытый текст
Цитата:
Kira Ksyll, Say
на основании главы 11(озвучка от дабберов из "синего" списка)
T временная
проверено
[Профиль]  [ЛС] 
 
Ответить
Loading...
Error