Дрифт гараж (Сезон 2) / Drift Garage (Season 2) [RUS] [2015, США, Автотюнинг, дрифт, WebRip 1080p] [BMIRussian]

Страницы:  1

Ответить
Автор
Сообщение

Mr.Leon911

Стаж: 7 лет 2 месяца

Сообщений: 235

Mr.Leon911 · 02-Фев-16 12:57 (2 года 6 месяцев назад, ред. 02-Фев-16 13:26)

Дрифт гараж (Сезон 2) / Drift Garage (Season 2)
Страна: США
Режиссер: Andrew Laputka
Жанр: Автотюнинг, дрифт
Дата выпуска: 2015
Перевод: Студийный (одноголосый закадровый)
Описание: Добро пожаловать на второй сезон Drift Garage, организованный профессиональными водителями Formula Drift Крисом Форсбергом и Райаном Тёрком. В этом сезоне будут строить два совершенно контрастных тачек для дрифта. Крис Форсберг модернизирует новый Nissan 370Z, превращая его в легальный уличный твин-турбо 700 "лошадок". Между тем Райан Тёрка попытается восстановить его побитый 20-летний Nissan 240SX.
Список серий
Drift Garage S02E01 Tuerck & Forsberg Epic 370Z and 240SX Drift Car Builds
Drift Garage S02E02 Dual Turbo Street Car Upgrade & A Missile Makeover
Drift Garage S02E03 Drift Car Cooling System Builds & Suspension Upgrades
Drift Garage S02E04 Forsberg 370Z Dyno Tuning & Major Parts Overhaul for Tuerck
Drift Garage S02E05 Drifting Across The Finish Line w Body Kits & Alignment
Drift Garage S02E06 Shakedown at the Racetrack
Drift Garage S02E07 Tuerck vs Forsberg The Ultimate Game of Drift 2015 Part 1
Drift Garage S02E08 Forsberg & Tuerck Battle In The Ultimate Game Of DRIFT 2015 Part 2
MediaInfo
Общее
Уникальный идентификатор : 226468856955346938353926146575496801747 (0xAA6050B808DBE1EDAA34B831E3926DD3)
Полное имя : E:\Drift Garage (2 season) [BMIRussian]\Drift Garage S02E01 Tuerck & Forsberg Epic 370Z and 240SX Drift Car Builds [BMIRussian].mkv
Формат : Matroska
Версия формата : Version 4 / Version 2
Размер файла : 99,8 Мбайт
Продолжительность : 5 м. 31 с.
Общий поток : 2524 Кбит/сек
Дата кодирования : UTC 2015-10-17 14:11:48
Программа кодирования : mkvmerge v7.1.0 ('Good Love') 64bit built on Jul 27 2014 13:06:55
Библиотека кодирования : libebml v1.3.0 + libmatroska v1.4.1
DURATION : 00:05:31.560000000
NUMBER_OF_FRAMES : 13815
NUMBER_OF_BYTES : 7957440
_STATISTICS_WRITING_APP : mkvmerge v7.1.0 ('Good Love') 64bit built on Jul 27 2014 13:06:55
_STATISTICS_WRITING_DATE_UTC : 2015-10-17 14:11:48
_STATISTICS_TAGS : BPS DURATION NUMBER_OF_FRAMES NUMBER_OF_BYTES
Видео
Идентификатор : 1
Формат : AVC
Формат/Информация : Advanced Video Codec
Профиль формата : [email protected]
Параметр CABAC формата : Да
Параметр ReFrames формата : 3 кадра
Идентификатор кодека : V_MPEG4/ISO/AVC
Продолжительность : 5 м. 31 с.
Битрейт : 2282 Кбит/сек
Ширина : 1920 пикселей
Высота : 1080 пикселей
Соотношение сторон : 16:9
Режим частоты кадров : Постоянный
Частота кадров : 23,976 кадра/сек
Цветовое пространство : YUV
Субдискретизация насыщенности : 4:2:0
Битовая глубина : 8 бит
Тип развёртки : Прогрессивная
Бит/(Пиксели*Кадры) : 0.046
Размер потока : 90,2 Мбайт (90%)
Default : Да
Forced : Нет
Аудио
Идентификатор : 2
Формат : MPEG Audio
Версия формата : Version 1
Профиль формата : Layer 3
Режим : Joint stereo
Расширение режима : MS Stereo
Идентификатор кодека : A_MPEG/L3
Идентификатор кодека/Подсказка : MP3
Продолжительность : 5 м. 31 с.
Вид битрейта : Постоянный
Битрейт : 192 Кбит/сек
Каналы : 2 канала
Частота : 48,0 КГц
Метод сжатия : С потерями
Размер потока : 7,59 Мбайт (8%)
Default : Да
Forced : Нет
Скриншоты
Download
Для скачивания .torrent файлов необходима регистрация
Сайт не распространяет и не хранит электронные версии произведений, а лишь предоставляет доступ к создаваемому пользователями каталогу ссылок на торрент-файлы, которые содержат только списки хеш-сумм
[Профиль]  [ЛС] 
 
Ответить
Loading...
Error