Родина / Чужой среди своих / Homeland [Сезон 5, Эпизод 1-3] (Майкл Куэста, Лесли Линка Глаттер, Кларк Джонсон) [2016, США, триллер, драма, детектив, WEB-DL HD (720p)] MVO, Original + SUB (rus, eng)

Страницы:  1

Ответить
Автор
Сообщение

apple_monster

RG Apple

Стаж: 7 лет 8 месяцев

Сообщений: 782

apple_monster · 23-Окт-15 23:46 (3 года 1 месяц назад, ред. 24-Окт-15 00:11)

[Цитировать] 

Родина / Homeland
"The nation sees a hero. She sees a threat"


Год выпуска: 2011, (5 сезонов)
Страна: США
Жанр: триллер, драма, детектив
Продолжительность серии: 55 мин.
Перевод: Многоголосый закадровый перевод
Оригинальная аудиодорожка: Есть
Субтитры: Русские полные и английские полные
Режиссёр: Майкл Куэста, Лесли Линка Глаттер, Кларк Джонсон
Сценарий: Генри Бромелл, Уильям Бромелл, Александр Кэри
Продюсер: Алекс Ганса, Ховард Гордон, Майкл Клик
Оператор: Нельсон Крегг, Дэвид Клайн, Крис Мэнли
Композитор: Шон Коллери
Художник: Джон Д. Кретщмер, Патти Подеста, Джеффри С. Гримсман
Монтаж: Терри Келли, Джордан Голдман, Джо Хобек
В ролях: Клэр Дэйнс, Дэмиэн Льюис, Мэнди Пэтинкин, Морена Баккарин, Дэвид Хэрвуд, Джексон Пэйс, Морган Сэйлор, Диего Клаттенхофф, Дэвид Марсиано, Руперт Френд
Мировая премьера: 2 октября 2011
Описание: В центре сюжета находятся сержант морской пехоты ВМФ США Николас Броди, вернувшийся домой после восьми лет отсутствия без вести в Ираке, и Кэрри Мэтисон, офицер ЦРУ, которая подозревает его в причастности к подготовке террористической атаки на Америку.
Качество исходника: WEB-DL 720p
Качество: WEB-DL
Тип: 720p
Контейнер: m4v
Видео: 1280x720 at 23.976 fps, MPEG-4 AVC, ~3900 kbps avg
Аудио#1: Russian: 48 kHz, ААС, 2/0 (L,R), ~160.00 kbps avg |Многоголосый закадровый, Amedia (NovaMedia)|
Аудио#2: Russian: 48 kHz, ААС, 2/0 (L,R), ~160.00 kbps avg |Многоголосый закадровый, LostFilm|
Аудио#3: English: 48 kHz, ААС, 2/0 (L,R), ~160.00 kbps avg
Аудио#4: Russian: 48 kHz, AC3, 3/2 (L,C,R,l,r) + LFE ch, ~384.00 kbps avg |Многоголосый закадровый, Amedia (NovaMedia)|
Аудио#5: Russian: 48 kHz, AC3, 3/2 (L,C,R,l,r) + LFE ch, ~384.00 kbps avg |Многоголосый закадровый, LostFilm|
Аудио#6: English: 48 kHz, AC3, 3/2 (L,C,R,l,r) + LFE ch, ~384.00 kbps avg
Субтитры №1: Russian: |Полные|
Субтитры №2: English: |Полные|
Родина, Сезон 5
Homeland, Season 5
Список эпизодов
1. Separation Anxiety (4 октября 2015)
Almost two years after the Embassy attack in Islamabad, Carrie is building a new life in Berlin. But her peace is threatened when a request from her boss forces her towards the dangerous world she left behind.
2. The Tradition of Hospitality (11 октября 2015)
Carrie and Düring visit a refugee camp. Saul and Allison are at odds. Quinn stays on mission.
3. Super Powers (18 октября 2015)
Jonas and Carrie revisit her past. Quinn stalks his prey.
Технические данные сериала
Эпизод №1
iTunes Meta Tags for country de
Код:
Name: Seperation Anxiety
Artist: Homeland
Album Artist: Homeland
Album: Homeland, Season 5
Genre: Drama
Release Date: 2015-10-04T07:00:00Z
Track #: 1/0
Disk #: 1/1
TV Show: Homeland
TV Episode #: 1
TV Episode ID: 1
TV Season: 5
Description: Almost two years after the Embassy attack in Islamabad, Carrie is building a new life in Berlin. But her peace is threatened when a request from her boss forces her towards the dangerous world she left behind.
Long Description: Almost two years after the Embassy attack in Islamabad, Carrie is building a new life in Berlin. But her peace is threatened when a request from her boss forces her towards the dangerous world she left behind.
Series Description: Claire Danes, Mandy Patinkin, Rupert Friend and F. Murray Abraham return for a fifth enthralling season of the Emmy®-Winning series Homeland. It is two years after she experienced horror and disillusionment on the front lines in Islamabad. Now, estranged from the CIA and living a self-imposed exile in Berlin, Carrie (Danes) struggles to overcome her past while working at a private security firm.
Rating: ab 16 Jahren
Copyright: © 2015 Showtime Networks, Inc., a CBS Company. All rights reserved.
contentID: 1046172017
XID: Apple:vendor-id:2015-574688-501
playlistID: 1041458064
artistID: 494917966
genteID: 4001
Sort Name: Seperation Anxiety
Sort Album: Homeland, Season 5
Sort TV Show: Homeland
MediaInfo
Код:
General
Complete name : 01 Seperation Anxiety (HD).m4v
Format : MPEG-4
Codec ID : M4V
File size : 1.95 GiB
Duration : 50mn 8s
Overall bit rate mode : Variable
Overall bit rate : 5 581 Kbps
Collection : Homeland
Season : 5
Album : Homeland, Season 5
Album/Sorted by : Homeland, Season 5
Album/Performer : Homeland
Part : 1
Part/Position : 1
Part/Total : 1
Track name : Seperation Anxiety
Track name/Position : 1
Performer : Homeland
Genre : Drama
ContentType : TV Show
Description : Almost two years after the Embassy attack in Islamabad, Carrie is building a new life in Berlin. But her peace is threatened when a request from her boss forces her towards the dangerous world she left behind. / Claire Danes, Mandy Patinkin, Rupert Friend and F. Murray Abraham return for a fifth enthralling season of the Emmy®-Winning series Homeland. It is two years after she experienced horror and disillusionment on the front lines in Islamabad. Now, estranged from the CIA and living a self-imposed exile in Berlin, Carrie (Danes) struggles to overcome her past while working at a private security firm.
Recorded date : UTC 2015-10-04 07:00:00
Encoded date : UTC 2015-10-23 08:54:19
Tagged date : UTC 2015-10-23 08:55:58
Copyright : © 2015 Showtime Networks, Inc., a CBS Company. All rights reserved.
Cover : Yes
Rating : None
Part_ID : 1
Title/Sort : Seperation Anxiety / Homeland
LongDescription : Almost two years after the Embassy attack in Islamabad, Carrie is building a new life in Berlin. But her peace is threatened when a request from her boss forces her towards the dangerous world she left behind.
HDVideo : Yes
AppleStoreCatalogID : 1046172017
AlbumTitleID : 494917966
PlayListID : 1041458064
GenreID : 4001
Vendor : Apple:vendor-id:2015-574688-501
ContentRating : de-tv|Ab 16 Jahren|500|
Video
ID : 1
Format : AVC
Format/Info : Advanced Video Codec
Format profile : [email protected]
Format settings, CABAC : No
Format settings, ReFrames : 2 frames
Format settings, GOP : M=2, N=90
Codec ID : avc1
Codec ID/Info : Advanced Video Coding
Duration : 50mn 8s
Source duration : 50mn 8s
Bit rate : 3 919 Kbps
Width : 1 280 pixels
Height : 720 pixels
Display aspect ratio : 16:9
Frame rate mode : Variable
Frame rate : 23.976 fps
Minimum frame rate : 23.810 fps
Maximum frame rate : 24.390 fps
Color space : YUV
Chroma subsampling : 4:2:0
Bit depth : 8 bits
Scan type : Progressive
Bits/(Pixel*Frame) : 0.177
Stream size : 1.37 GiB (70%)
Source stream size : 1.37 GiB (70%)
Title : Main Program
Language : English
Encoded date : UTC 2015-10-23 08:54:19
Tagged date : UTC 2015-10-23 08:54:57
Color range : Limited
Color primaries : BT.709
Transfer characteristics : BT.709
Matrix coefficients : BT.709
Audio #1
ID : 2
Format : AAC
Format/Info : Advanced Audio Codec
Format profile : LC
Codec ID : 40
Duration : 50mn 6s
Bit rate mode : Variable
Bit rate : 165 Kbps
Maximum bit rate : 259 Kbps
Channel(s) : 2 channels
Channel positions : Front: L R
Sampling rate : 48.0 KHz
Compression mode : Lossy
Stream size : 59.0 MiB (3%)
Title : Russian MVO Amedia Stereo
Language : Russian
Encoded date : UTC 2015-10-23 08:54:19
Tagged date : UTC 2015-10-23 08:54:57
Audio #2
ID : 3
Format : AAC
Format/Info : Advanced Audio Codec
Format profile : LC
Codec ID : 40
Duration : 50mn 8s
Bit rate mode : Variable
Bit rate : 165 Kbps
Maximum bit rate : 265 Kbps
Channel(s) : 2 channels
Channel positions : Front: L R
Sampling rate : 48.0 KHz
Compression mode : Lossy
Stream size : 59.0 MiB (3%)
Title : Russian MVO LostFilm Stereo
Language : Russian
Encoded date : UTC 2015-10-23 08:54:19
Tagged date : UTC 2015-10-23 08:54:57
Audio #3
ID : 4
Format : AAC
Format/Info : Advanced Audio Codec
Format profile : LC
Codec ID : 40
Duration : 50mn 8s
Bit rate mode : Variable
Bit rate : 165 Kbps
Maximum bit rate : 266 Kbps
Channel(s) : 2 channels
Channel positions : Front: L R
Sampling rate : 48.0 KHz
Compression mode : Lossy
Stream size : 59.0 MiB (3%)
Title : English Stereo
Language : English
Encoded date : UTC 2015-10-23 08:54:19
Tagged date : UTC 2015-10-23 08:54:57
Audio #4
ID : 5
Format : AC-3
Format/Info : Audio Coding 3
Mode extension : CM (complete main)
Format settings, Endianness : Big
Codec ID : ac-3
Duration : 50mn 6s
Bit rate mode : Constant
Bit rate : 384 Kbps
Channel(s) : 6 channels
Channel positions : Front: L C R, Side: L R, LFE
Sampling rate : 48.0 KHz
Bit depth : 16 bits
Compression mode : Lossy
Stream size : 138 MiB (7%)
Title : Russian MVO Amedia DD 5.1
Language : Russian
Encoded date : UTC 2015-10-23 08:54:19
Tagged date : UTC 2015-10-23 08:54:21
Audio #5
ID : 6
Format : AC-3
Format/Info : Audio Coding 3
Mode extension : CM (complete main)
Format settings, Endianness : Big
Codec ID : ac-3
Duration : 50mn 8s
Bit rate mode : Constant
Bit rate : 384 Kbps
Channel(s) : 6 channels
Channel positions : Front: L C R, Side: L R, LFE
Sampling rate : 48.0 KHz
Bit depth : 16 bits
Compression mode : Lossy
Stream size : 138 MiB (7%)
Title : Russian MVO LostFilm DD 5.1
Language : Russian
Encoded date : UTC 2015-10-23 08:54:19
Tagged date : UTC 2015-10-23 08:54:21
Audio #6
ID : 7
Format : AC-3
Format/Info : Audio Coding 3
Mode extension : CM (complete main)
Format settings, Endianness : Big
Codec ID : ac-3
Duration : 50mn 8s
Bit rate mode : Constant
Bit rate : 384 Kbps
Channel(s) : 6 channels
Channel positions : Front: L C R, Side: L R, LFE
Sampling rate : 48.0 KHz
Bit depth : 16 bits
Compression mode : Lossy
Stream size : 138 MiB (7%)
Title : English DD 5.1
Language : English
Encoded date : UTC 2015-10-23 08:54:19
Tagged date : UTC 2015-10-23 08:54:57
Text #1
ID : 8
Format : Timed Text
Muxing mode : sbtl
Codec ID : tx3g
Duration : 47mn 25s
Bit rate mode : Variable
Bit rate : 91 bps
Stream size : 31.6 KiB (0%)
Title : Russian Subtitle
Language : Russian
Encoded date : UTC 2015-10-23 08:54:19
Tagged date : UTC 2015-10-23 08:54:56
Text #2
ID : 9
Format : Timed Text
Muxing mode : sbtl
Codec ID : tx3g
Duration : 47mn 28s
Bit rate mode : Variable
Bit rate : 69 bps
Stream size : 24.1 KiB (0%)
Title : English Subtitle
Language : English
Encoded date : UTC 2015-10-23 08:54:19
Tagged date : UTC 2015-10-23 08:54:56
Скриншоты



Релиз подготовлен для просмотра на Apple TV, iPad, iPhone, iPod Touch.
Для просмотра данного релиза на компьютере с ОС Windows рекомендуется использовать VLC media player
[Профиль]  [ЛС] 

bot · 28-Окт-18 10:10 (спустя 3 года)

Тема была перенесена из форума Сериалы HD для Apple TV в форум Архив (Видео HD)
jaundiced
 
 
Ответить
Loading...
Error