Владимир Высоцкий. "Я не Верю Судьбе" (Людмила Снигирева) [2013, Документальный, HDTVRip 720p]

Страницы:  1

Ответить
Автор
Сообщение

plarin

Top Seed 06* 1280r

Стаж: 10 лет 4 месяца

Сообщений: 4094

plarin · 26-Июл-15 14:10 (3 года 3 месяца назад, ред. 26-Июл-15 14:12)

Владимир Высоцкий. "Я не Верю Судьбе"
Год выпуска: 2013
Страна: Россия
Студия: Первый Канал HD | МЕДИА КОНСТРУКТОР
Жанр: Документальный
Продолжительность: 0:51:21
Продюсеры: Данила Шарапов, Олег Вольнов
Авторы сценария: Екатерина Алябьева, Родион Чепель
Режиссер: Людмила Снигирева
Описание: О Владимире Высоцком снято более 400 фильмов, но в его биографии по-прежнему остаются белые пятна. Эта картина рассказывает, в частности, о детстве поэта – времени, о котором сам он не любил вспоминать. О многом, что происходило с ним тогда и что сформировало его характер и жизненные принципы, зрители узнают впервые.
Автор рипа: lrn
Автор записи: GeneralFilm
Сэмпл: sendfile
Тип релиза: HDTVRip 720p
Контейнер: MKV
Видео: 1280x720 (16:9), 25,000 fps, H264, ~4000 kbps avg, ~0.174 bit/pixel
Аудио: 48 kHz, AC3 Dolby Digital, 3/2 (L,C,R,l,r) + LFE ch, ~384.00 kbps avg
MediaInfo
General
Unique ID : 226946978644110396227070824118561737203 (0xAABC65F02A7620AEAC8ED4DA379309F3)
Complete name : E:\uTorrent.Temp\Temp\Visockiy.Ya.Ne.Veru.Sudbe.2013.HDTV.720p.x264-lrn.mkv
Format : Matroska
Format version : Version 4 / Version 2
File size : 1.57 GiB
Duration : 51mn 21s
Overall bit rate : 4 384 Kbps
Movie name : Visockiy.Ya.Ne.Veru.Sudbe.2013.HDTV.720p.x264-lrn
Encoded date : UTC 2010-02-22 21:41:31
Writing application : mkvmerge v5.9.0 ('On The Loose') built on Dec 9 2012 15:37:01
Writing library : libebml v1.3.0 + libmatroska v1.4.0
DURATION : 00:51:21.920000000
NUMBER_OF_FRAMES : 77048
NUMBER_OF_BYTES : 1540324643
_STATISTICS_WRITING_APP : mkvmerge v7.7.0 ('Six Voices') 32bit built on Feb 28 2015 23:23:00
_STATISTICS_WRITING_DATE_UT : 2015-07-26 10:27:24
_STATISTICS_TAGS : BPS DURATION NUMBER_OF_FRAMES NUMBER_OF_BYTES
Video
ID : 1
Format : AVC
Format/Info : Advanced Video Codec
Format profile : [email protected]
Format settings, CABAC : Yes
Format settings, ReFrames : 8 frames
Codec ID : V_MPEG4/ISO/AVC
Duration : 51mn 21s
Bit rate : 4 000 Kbps
Width : 1 280 pixels
Height : 720 pixels
Display aspect ratio : 16:9
Frame rate mode : Constant
Frame rate : 25.000 fps
Color space : YUV
Chroma subsampling : 4:2:0
Bit depth : 8 bits
Scan type : Progressive
Bits/(Pixel*Frame) : 0.174
Stream size : 1.40 GiB (89%)
Writing library : x264 core 146 r2538 121396c
Encoding settings : cabac=1 / ref=8 / deblock=1:-3:-3 / analyse=0x3:0x133 / me=umh / subme=9 / psy=1 / psy_rd=1.00:0.00 / mixed_ref=1 / me_range=32 / chroma_me=1 / trellis=2 / 8x8dct=1 / cqm=0 / deadzone=21,11 / fast_pskip=1 / chroma_qp_offset=-2 / threads=12 / lookahead_threads=2 / sliced_threads=0 / nr=0 / decimate=1 / interlaced=0 / bluray_compat=0 / constrained_intra=0 / bframes=8 / b_pyramid=2 / b_adapt=2 / b_bias=0 / direct=3 / weightb=1 / open_gop=0 / weightp=2 / keyint=250 / keyint_min=25 / scenecut=40 / intra_refresh=0 / rc_lookahead=50 / rc=2pass / mbtree=1 / bitrate=4000 / ratetol=1.0 / qcomp=0.60 / qpmin=0 / qpmax=69 / qpstep=4 / cplxblur=20.0 / qblur=0.5 / vbv_maxrate=62500 / vbv_bufsize=78125 / nal_hrd=none / filler=0 / ip_ratio=1.40 / aq=1:1.00
Default : Yes
Forced : No
Audio
ID : 2
Format : AC-3
Format/Info : Audio Coding 3
Mode extension : CM (complete main)
Format settings, Endianness : Big
Codec ID : A_AC3
Duration : 51mn 21s
Bit rate mode : Constant
Bit rate : 384 Kbps
Channel(s) : 6 channels
Channel positions : Front: L C R, Side: L R, LFE
Sampling rate : 48.0 KHz
Compression mode : Lossy
Stream size : 141 MiB (9%)
Language : Russian
Default : Yes
Forced : No
x264 log
raw [info]: 1280x720p 1:1 @ 25/1 fps (cfr)
x264 [info]: using SAR=1/1
x264 [info]: using cpu capabilities: MMX2 SSE2Fast SSSE3 SSE4.2 AVX
x264 [info]: profile High, level 4.1
x264 [info]: frame I:524 Avg QP:14.70 size: 90506
x264 [info]: frame P:17946 Avg QP:17.67 size: 37370
x264 [info]: frame B:58578 Avg QP:20.08 size: 14037
x264 [info]: consecutive B-frames: 2.0% 3.1% 5.1% 44.2% 14.8% 18.2% 5.6% 5.7% 1.2%
x264 [info]: mb I I16..4: 7.1% 81.5% 11.4%
x264 [info]: mb P I16..4: 2.4% 14.0% 1.0% P16..4: 44.1% 21.5% 11.0% 0.3% 0.1% skip: 5.7%
x264 [info]: mb B I16..4: 0.2% 1.6% 0.1% B16..8: 37.2% 12.0% 2.3% direct:10.3% skip:36.4% L0:44.6% L1:44.6% BI:10.8%
x264 [info]: 8x8 transform intra:81.8% inter:69.6%
x264 [info]: direct mvs spatial:98.8% temporal:1.2%
x264 [info]: coded y,uvDC,uvAC intra: 80.3% 59.4% 27.5% inter: 34.4% 26.9% 1.0%
x264 [info]: i16 v,h,dc,p: 51% 12% 5% 31%
x264 [info]: i8 v,h,dc,ddl,ddr,vr,hd,vl,hu: 14% 11% 6% 7% 12% 13% 12% 12% 12%
x264 [info]: i4 v,h,dc,ddl,ddr,vr,hd,vl,hu: 15% 11% 4% 8% 13% 15% 13% 11% 11%
x264 [info]: i8c dc,h,v,p: 51% 20% 17% 13%
x264 [info]: Weighted P-Frames: Y:7.3% UV:1.2%
x264 [info]: ref P L0: 47.1% 10.7% 16.4% 7.3% 5.7% 4.9% 4.2% 3.3% 0.4% 0.0%
x264 [info]: ref B L0: 75.8% 11.0% 5.6% 3.0% 2.4% 1.5% 0.8%
x264 [info]: ref B L1: 93.9% 6.1%
x264 [info]: kb/s:3998.35
encoded 77048 frames, 13.19 fps, 3998.35 kb/s
Скриншоты
Download
Для скачивания .torrent файлов необходима регистрация
Сайт не распространяет и не хранит электронные версии произведений, а лишь предоставляет доступ к создаваемому пользователями каталогу ссылок на торрент-файлы, которые содержат только списки хеш-сумм
[Профиль]  [ЛС] 
 
Ответить
Loading...
Error