[TR24][OF] Frédéric (Frederic) Chopin: 24 Préludes (Preludes), Op. 28 - Grigory Sokolov / Григорий Соколов - 2013 (Classical)

Страницы:  1

Ответить
Автор
Сообщение

becasiana

Top Seed 05* 640r

Стаж: 5 лет 2 месяца

Сообщений: 1875

becasiana · 06-Июл-15 22:49 (3 года 2 месяца назад)

Frédéric Chopin
Préludes
Grigory Sokolov

Год издания: 2013 | Жанр: Classical
Издатель: Naïve | Продолжительность: 00:47:12
Наличие сканов: Sleeve, Digital Booklet

Grigory Sokolov, piano
Recorded live at the Salle Adyar June 17, 1990
Контейнер: FLAC (*.flac) | Тип рипа: tracks
Разрядность: 24bit / 44.1kHz | Количество каналов: 2.0

Треклист

Frédéric Chopin (1810-1849)
24 Préludes, Op. 28
01. Prélude N° 1 in C major, opus 28 (Agitato) (0:47)
02. Prélude N° 2 in A minor, opus 28 (Lento) (2:45)
03. Prélude N° 3 in G major, opus 28 (Vivace) (1:01)
04. Prélude N° 4 in E minor, opus 28 (Largo) (2:21)
05. Prélude N° 5 in D major, opus 28 (Allegro molto) (0:36)
06. Prélude N° 6 in B minor, opus 28 (Lento Assai) (2:37)
07. Prélude N° 7 in A major, opus 28 (Andantino) (0:42)
08. Prélude N° 8 in F sharp minor, opus 28 (Molto agitato) (2:12)
09. Prélude N° 9 in E major, opus 28 (Largo) (1:31)
10. Prélude N° 10 in C sharp minor, opus 28 (Allegro molto) (0:40)
11. Prélude N° 11 in B major, opus 28 (Vivace) (0:54)
12. Prélude N° 12 in G sharp minor, opus 28 (Presto) (1:22)
13. Prélude N° 13 in F sharp major, opus 28 (Lento) (4:25)
14. Prélude N° 14 in E flat minor, opus 28 (Allegro) (0:39)
15. Prélude N° 15 in D flat major, opus 28 (Sostenuto) (7:17)
16. Prélude N° 16 in B flat minor, opus 28 (Presto con fuoco) (1:05)
17. Prélude N° 17 in A flat major, opus 28 (Allegretto) (4:11)
18. Prélude N° 18 in F minor, opus 28 (Allegro molto) (1:02)
19. Prélude N° 19 in E flat major, opus 28 (Vivace) (1:17)
20. Prélude N° 20 in C minor, opus 28 (Largo) (2:01)
21. Prélude N° 21 in B flat major, opus 28 (Cantabile) (3:04)
22. Prélude N° 22 in G minor, opus 28 (Molto agitato) (0:50)
23. Prélude N° 23 in F major, opus 28 (Moderato) (1:11)
24. Prélude N° 24 in D minor, opus 28 (Allegro appassionato) (2:42)
О релизе

Sensitivity
Grigory Sokolov: a living legend of the piano whose public performances and recordings are as rare as the man is secretive. He stepped away from the limelight years ago, refusing to be idolised by a society avid for imagery. Under the winged fingers of the giant you hear the vibrancy of an inner song, wordless but not illegible. June 7 1990: concert and recording of Chopin’s Preludes by Grigory Sokolov, still relatively unknown in France.
The record receives high praise from the critics
Отчёты
Динамический диапазон
foobar2000 1.3.8 / Dynamic Range Meter 1.1.1
log date: 2015-07-06 22:25:52
--------------------------------------------------------------------------------
Analyzed: Grigory Sokolov / Chopin: 24 Préludes, Op. 28
--------------------------------------------------------------------------------
DR Peak RMS Duration Track
--------------------------------------------------------------------------------
DR10 -5.99 dB -23.26 dB 0:47 01-Prélude N° 1 in C major, opus 28 (Agitato)
DR14 -8.55 dB -28.61 dB 2:45 02-Prélude N° 2 in A minor, opus 28 (Lento)
DR12 -10.47 dB -28.06 dB 1:01 03-Prélude N° 3 in G major, opus 28 (Vivace)
DR14 -4.06 dB -26.01 dB 2:21 04-Prélude N° 4 in E minor, opus 28 (Largo)
DR12 -5.94 dB -22.33 dB 0:36 05-Prélude N° 5 in D major, opus 28 (Allegro molto)
DR12 -7.22 dB -28.86 dB 2:37 06-Prélude N° 6 in B minor, opus 28 (Lento Assai)
DR11 -12.37 dB -30.83 dB 0:42 07-Prélude N° 7 in A major, opus 28 (Andantino)
DR10 -2.68 dB -18.10 dB 2:12 08-Prélude N° 8 in F sharp minor, opus 28 (Molto agitato)
DR12 -2.11 dB -18.76 dB 1:31 09-Prélude N° 9 in E major, opus 28 (Largo)
DR12 -11.11 dB -27.88 dB 0:40 10-Prélude N° 10 in C sharp minor, opus 28 (Allegro molto)
DR11 -8.60 dB -26.02 dB 0:54 11-Prélude N° 11 in B major, opus 28 (Vivace)
DR11 -0.10 dB -17.13 dB 1:22 12-Prélude N° 12 in G sharp minor, opus 28 (Presto)
DR13 -6.75 dB -27.69 dB 4:25 13-Prélude N° 13 in F sharp major, opus 28 (Lento)
DR11 -0.85 dB -17.55 dB 0:39 14-Prélude N° 14 in E flat minor, opus 28 (Allegro)
DR16 -0.53 dB -23.58 dB 7:17 15-Prélude N° 15 in D flat major, opus 28 (Sostenuto)
DR11 -0.10 dB -15.69 dB 1:05 16-Prélude N° 16 in B flat minor, opus 28 (Presto con fuoco)
DR13 -2.01 dB -22.31 dB 4:11 17-Prélude N° 17 in A flat major, opus 28 (Allegretto)
DR12 -0.50 dB -16.66 dB 1:02 18-Prélude N° 18 in F minor, opus 28 (Allegro molto)
DR9 -2.47 dB -23.58 dB 1:17 19-Prélude N° 19 in E flat major, opus 28 (Vivace)
DR14 -0.10 dB -20.53 dB 2:01 20-Prélude N° 20 in C minor, opus 28 (Largo)
DR16 -0.10 dB -23.66 dB 3:04 21-Prélude N° 21 in B flat major, opus 28 (Cantabile)
DR11 -0.10 dB -13.05 dB 0:50 22-Prélude N° 22 in G minor, opus 28 (Molto agitato)
DR12 -11.60 dB -29.87 dB 1:11 23-Prélude N° 23 in F major, opus 28 (Moderato)
DR11 -0.10 dB -15.27 dB 2:42 24-Prélude N° 24 in D minor, opus 28 (Allegro appassionato)
--------------------------------------------------------------------------------
Number of tracks: 24
Official DR value: DR12
Samplerate: 44100 Hz
Channels: 2
Bits per sample: 24
Bitrate: 1267 kbps
Codec: FLAC
================================================================================
Скриншот спектра частот
Доп. информация
При скачивании, если необходимо, переименуйте папку, в которой будет находиться альбомБольшая просьба к скачавшим поддерживать раздачу! Помогайте другим, ведь вам тоже может понадобиться помощь!Не забываем говорить "Спасибо"!Комментарии приветствуются!
Download
Для скачивания .torrent файлов необходима регистрация
Сайт не распространяет и не хранит электронные версии произведений, а лишь предоставляет доступ к создаваемому пользователями каталогу ссылок на торрент-файлы, которые содержат только списки хеш-сумм
[Профиль]  [ЛС] 
 
Ответить
Loading...
Error