BBC. Таинственный мир гормонов / The Fantastical World of Hormones with Professor John Wass (Джеймс Сенди / James Sandy) [2014, Документальный, научно-познавательный, SATRip]

Страницы:  1

Ответить
Автор
Сообщение

Thundr

Стаж: 7 лет 11 месяцев

Сообщений: 724


Thundr · 25-Апр-15 16:46 (3 года 6 месяцев назад, ред. 25-Апр-15 17:05)

BBC. Таинственный мир гормонов / The Fantastical World of Hormones with Professor John Wass
Дата/Год выпуска: 2014
Страна: Великобритания, BBC
Жанр: Документальный, научно-познавательный
Продолжительность: 00:57:26
Перевод: Профессиональный (дублированный)
Русские субтитры: нет
Оригинальная аудиодорожка: нет
Режиссер: Джеймс Сенди / James Sandy
Описание: Гормоны формируют каждого из нас, влияя на все наши характеристики: рост, вес, предпочтения в еде, как мы будем расти и размножаться и даже как мы будем себя вести и чувствовать. Этот документальный фильм расскажет удивительную и странную историю того, как были обнаружены гормоны.
Семпл:http://sendfile.su/1111805
качество: SATRip
формат: AVI
Видео: Xvid 720x400 25fps 1 750 Kbps
Аудио: AC3 48000Hz stereo 192kbps
MediaInfo
H:\Документальные фильмы\BBC. Таинственный мир гормонов.2014.XviD.SATRip.avi
General
Complete name : H:\Документальные фильмы\BBC. Таинственный мир гормонов.2014.XviD.SATRip.avi
Format : AVI
Format/Info : Audio Video Interleave
File size : 802 MiB
Duration : 57mn 25s
Overall bit rate : 1 952 Kbps
Movie name : The Fantastical World of Hormones with Professor John Wass
Director : SATRip by Thunder
Writing application : VirtualDubMod 1.5.10.3 | www.virtualdub-fr.org || (build 2550/release)
Original source form/Name : Documentary
Video #0
ID : 0
Format : MPEG-4 Visual
Format profile : Advanced [email protected]
Format settings, BVOP : Yes
Format settings, QPel : No
Format settings, GMC : No warppoints
Format settings, Matrix : Default (H.263)
Codec ID : XVID
Codec ID/Hint : XviD
Duration : 57mn 25s
Bit rate : 1 750 Kbps
Width : 720 pixels
Height : 400 pixels
Display aspect ratio : 16:9
Frame rate : 25.000 fps
Color space : YUV
Chroma subsampling : 4:2:0
Bit depth : 8 bits
Scan type : Progressive
Bits/(Pixel*Frame) : 0.243
Stream size : 719 MiB (90%)
Writing library : XviD 1.2.1 (UTC 2008-12-04)
Audio #1
ID : 1
Format : AC-3
Format/Info : Audio Coding 3
Mode extension : CM (complete main)
Codec ID : 2000
Duration : 57mn 25s
Bit rate mode : Constant
Bit rate : 192 Kbps
Channel(s) : 2 channels
Channel positions : Front: L R
Sampling rate : 48.0 KHz
Bit depth : 16 bits
Stream size : 78.9 MiB (10%)
Alignment : Split accross interleaves
Interleave, duration : 40 ms (1.00 video frame)
Interleave, preload duration : 500 ms
Скриншоты
Download
Для скачивания .torrent файлов необходима регистрация
Сайт не распространяет и не хранит электронные версии произведений, а лишь предоставляет доступ к создаваемому пользователями каталогу ссылок на торрент-файлы, которые содержат только списки хеш-сумм
[Профиль]  [ЛС] 

Gabi Grausam

Стаж: 3 года 3 месяца

Сообщений: 214

Gabi Grausam · 05-Окт-15 03:40 (спустя 5 месяцев 9 дней)

[Цитировать] 

На сколько фундаментально освещена тема?
[Профиль]  [ЛС] 

alexey_ra

Стаж: 11 лет 7 месяцев

Сообщений: 32

alexey_ra · 09-Окт-15 22:33 (спустя 4 дня)

[Цитировать] 

Gabi Grausam писал(а):
68900103На сколько фундаментально освещена тема?
BBC выпускает научно-популярные фильмы, с большим уклоном в "популярные". Данный фильм вообще по теме мало что рассказывает. Это скорее зарисовка на тему "забавная история открытия эндокринной системы". Основная целевая аудитория школьники и домохозяйки.
[Профиль]  [ЛС] 

Victor-470uks

Стаж: 8 лет 2 месяца

Сообщений: 172

Victor-470uks · 11-Мар-16 01:00 (спустя 5 месяцев 1 день, ред. 11-Мар-16 01:00)

[Цитировать] 

alexey_ra писал(а):
68936389
Gabi Grausam писал(а):
68900103На сколько фундаментально освещена тема?
BBC выпускает научно-популярные фильмы, с большим уклоном в "популярные". Данный фильм вообще по теме мало что рассказывает. Это скорее зарисовка на тему "забавная история открытия эндокринной системы". Основная целевая аудитория школьники и домохозяйки.
а на трекере профессура и кмн зависают ?
Г.Мельниченко И.Дедов , В.Фадеев Н.Свириденко Н.Петунина Туманов , Самсонова E.Трошина В.Ванушко

Трошина Е.А. - доктор мед. наук, профессор, заведующая терапевтическим отделением с группой ожирения ФГБУ “Эндокринологический научный центр”, ФГБУ ЭНЦ
Свириденко Н.Ю. - доктор мед. наук, профессор, заместитель директора Института клинической эндокринологии по лечебной работе, главный научный сотрудник отделения терапии ФГБУ ЭНЦ
Ванушко В.Э. - доктор мед. наук, главный научный сотрудник отделения хирургии ФГБУ ЭНЦ
Румянцев П.О. - доктор мед. наук, заместитель директора по модернизации и инновационному развитию ФГБУ ЭНЦ
Фадеев В.В. - доктор мед. наук, профессор, заведующий кафедрой эндокринологии лечебного факультета ФГБОУ ВПО “Первый МГМУ им. И.М. Сеченова”, ГБОУ ВПО “Первый МГМУ им. И.М. Сеченова”,
Петунина Н.А. - доктор мед. наук, профессор, заведующая кафедрой эндокринологии института последипломного образования ФГБОУ ВПО “Первый МГМУ им.Сеченова
[Профиль]  [ЛС] 

Gabi Grausam

Стаж: 3 года 3 месяца

Сообщений: 214

Gabi Grausam · 11-Мар-16 01:54 (спустя 54 мин.)

[Цитировать] 

Victor-470uks
С тобой всё хорошо? Нормально?
[Профиль]  [ЛС] 

Linderman555

Стаж: 6 лет 7 месяцев

Сообщений: 55

Linderman555 · 13-Дек-16 08:12 (спустя 9 месяцев)

[Цитировать] 

alexey_ra писал(а):
68936389
Gabi Grausam писал(а):
68900103На сколько фундаментально освещена тема?
BBC выпускает научно-популярные фильмы, с большим уклоном в "популярные". Данный фильм вообще по теме мало что рассказывает. Это скорее зарисовка на тему "забавная история открытия эндокринной системы". Основная целевая аудитория школьники и домохозяйки.
Я смотрю твой мозг всегда должен быть на пределе, от напряжения. Смотри не переутомись, а то шизу можно похватить.
[Профиль]  [ЛС] 
 
Ответить
Loading...
Error