Шествие смерти / Парад смерти / Death Parade (Татикава Юдзуру) [TV] [12 из 12] [Без хардсаба] [RUS(int), JAP + SUB] [2015, мистика, драма, HDTVRip] [HWP]

Страницы:  1

Ответить
Автор
Сообщение

Cheesuru

Top Bonus 04* 3TB

Стаж: 7 лет 8 месяцев

Сообщений: 45

Cheesuru · 26-Янв-15 19:50 (3 года 9 месяцев назад, ред. 11-Май-15 23:28)

Шествие смерти / Death Parade
Страна: Япония
Год выпуска: 2015 г.
Жанр: мистика, драма
Продолжительность: ТВ, 12 эп. по 25 мин.
Режиссер: Татикава Юдзуру
Студия: Madhouse Studios
  1. Субтитры:
    Перевод: Zottig, редакция: Алекс Миф
  2. Озвучка:
    Трехголосая: Zendos & Eladiel & Absurd (Onibaku Group)

«Добро пожаловать в бар «Королева Деким»», — этой фразой встречает двух ничего не подозревающих людей седовласый бармен по имени Деким. «С этого момента вам предстоит вступить в схватку за собственные жизни», — продолжает он, вводя гостей в смертельную игру. Вскоре истинная природа этого места и его гостей станет очевидной. А в конце игры Деким раскроется как «судья», и приговором его будет...
World-art
Качество: HDTVRip (DS of [FFF])
Тип релиза: Без хардсаба
Формат видео: avi
Релиз/Автор рипа: Cheesuru
Видео: 704x396, 23.976 fps, XviD ~1400 kbps
Аудио 1: Русская / AC3 / 48 kHz / 2 ch / 192 kbps [озвучка: Zendos & Eladiel & Absurd]
Аудио 2: Японская / AC3 / 48 kHz / 2 ch / 192 kbps
Субтитры: *srt, *ass, русские, архив шрифтов
Подробные тех. данные
MediaInfo
General
Complete name : D:\Death Parade [HWP]\Death Parade - 01.avi
Format : AVI
Format/Info : Audio Video Interleave
File size : 290 MiB
Duration : 23mn 4s
Overall bit rate : 1 759 Kbps
Writing application : VirtualDubModRus 1.5.10.2 (build 2542/release)
Writing library : VirtualDubMod build 2542/release
Video
ID : 0
Format : MPEG-4 Visual
Format profile : Advanced [email protected]
Format settings, BVOP : Yes
Format settings, QPel : No
Format settings, GMC : No warppoints
Format settings, Matrix : Default (H.263)
Codec ID : XVID
Codec ID/Hint : XviD
Duration : 23mn 4s
Bit rate : 1 360 Kbps
Width : 704 pixels
Height : 396 pixels
Display aspect ratio : 16:9
Frame rate : 23.976 fps
Color space : YUV
Chroma subsampling : 4:2:0
Bit depth : 8 bits
Scan type : Progressive
Compression mode : Lossy
Bits/(Pixel*Frame) : 0.204
Stream size : 225 MiB (77%)
Writing library : XviD 64
Audio #1
ID : 1
Format : AC-3
Format/Info : Audio Coding 3
Mode extension : CM (complete main)
Format settings, Endianness : Big
Codec ID : 2000
Duration : 23mn 4s
Bit rate mode : Constant
Bit rate : 192 Kbps
Channel(s) : 2 channels
Channel positions : Front: L R
Sampling rate : 48.0 KHz
Bit depth : 16 bits
Compression mode : Lossy
Stream size : 31.7 MiB (11%)
Alignment : Split accross interleaves
Interleave, duration : 42 ms (1.00 video frame)
Interleave, preload duration : 500 ms
Title : Zendos & Eladiel & Absurd
Audio #2
ID : 2
Format : AC-3
Format/Info : Audio Coding 3
Mode extension : CM (complete main)
Format settings, Endianness : Big
Codec ID : 2000
Duration : 23mn 4s
Bit rate mode : Constant
Bit rate : 192 Kbps
Channel(s) : 2 channels
Channel positions : Front: L R
Sampling rate : 48.0 KHz
Bit depth : 16 bits
Compression mode : Lossy
Stream size : 31.7 MiB (11%)
Alignment : Split accross interleaves
Interleave, duration : 42 ms (1.00 video frame)
Interleave, preload duration : 500 ms
Title : japanese
BitrateViewer
Список эпизодов

Эпизод 01: «Смерть: игра за семь дротиков»
Эпизод 02: «Обратный ход»
Эпизод 03: «Повторяющаяся баллада»
Эпизод 04: «Аркада»
Эпизод 05: «Марш смерти»
Эпизод 06: «Cross heart attack»
Эпизод 07: «Пьянящий яд»
Эпизод 08: «Смертельные удары»
Эпизод 09: «Смертельный встречный удар»
Эпизод 10: «Сказочник»
Эпизод 11: «Memento mori»
Эпизод 12: «Дорога самоубийцы»
Скриншоты
31.03.2015. Добавлены 11-12 серии.
Не пропустите Death Billiards, бармен Деким и брюнетка снова в деле!
По сериалу это примерно 5.5 серия (между 5 и 6).

Zendos, Eladiel, Absurd, спасибо за озвучку.
Релиз завершен. Всем приятного просмотра.
Download
Для скачивания .torrent файлов необходима регистрация
Сайт не распространяет и не хранит электронные версии произведений, а лишь предоставляет доступ к создаваемому пользователями каталогу ссылок на торрент-файлы, которые содержат только списки хеш-сумм
[Профиль]  [ЛС] 

Buka63

Moderator

Стаж: 7 лет 7 месяцев

Сообщений: 9338

Buka63 · 26-Янв-15 21:34 (спустя 1 час 43 мин.)

[Цитировать] 

Cheesuru
Цитата:
Многоголосая
Трёхголосая. Многоголосая, если больше.
[Профиль]  [ЛС] 

Cheesuru

Top Bonus 04* 3TB

Стаж: 7 лет 8 месяцев

Сообщений: 45

Cheesuru · 26-Янв-15 22:58 (спустя 1 час 24 мин.)

[Цитировать] 

Buka63 писал(а):
Трёхголосая. Многоголосая, если больше.
Поправил.
[Профиль]  [ЛС] 

Buka63

Moderator

Стаж: 7 лет 7 месяцев

Сообщений: 9338

Buka63 · 29-Янв-15 01:51 (спустя 2 дня 2 часа, ред. 29-Янв-15 01:51)

[Цитировать] 

скрытый текст
Цитата:
fonts.zip 170.78 KB 174884
Раздачи в архивах запрещены http://rutracker.org/forum/viewtopic.php?t=1992731#a2
? - недооформлено
Цитата:
28.01.2015. Удален архив с шрифтами.
Перезалейте их просто в отдельной папке.
Проверено
[Профиль]  [ЛС] 

Kristap

Стаж: 10 лет 2 месяца

Сообщений: 28


Kristap · 04-Фев-15 23:56 (спустя 6 дней)

[Цитировать] 

Когда порадуете продолжением?
А то уже 4-я серия с другой озвучкой лежит.
[Профиль]  [ЛС] 

kolotywkun

Стаж: 7 лет 11 месяцев

Сообщений: 90

kolotywkun · 23-Мар-15 14:56 (спустя 1 месяц 18 дней)

[Цитировать] 

Так серий 10 или все-таки 12, обычно "Приятного просмотра" желают после завершения релиза. (?!)
[Профиль]  [ЛС] 

Cheesuru

Top Bonus 04* 3TB

Стаж: 7 лет 8 месяцев

Сообщений: 45

Cheesuru · 24-Мар-15 04:10 (спустя 13 часов)

[Цитировать] 

kolotywkun
Всего будет 12 серий. В конце я добавлю фразу "Релиз завершен", как это сделано, например, здесь.
[Профиль]  [ЛС] 
 
Ответить
Loading...
Error