BBC. Животный интеллект /BBC. Inside The Animal Mind (3 серии из 3) [Наука 2.0 22.12.2014] (Мэтт Барретт /Matt Barrett) [2014, Документальный, познавательный, SATRip]

Страницы:  1

Ответить
Автор
Сообщение

Chelur

RG Документалисты

Стаж: 10 лет 7 месяцев

Сообщений: 8386

Chelur · 02-Дек-14 21:47 (3 года 11 месяцев назад, ред. 15-Сен-17 19:48)

Животный интеллект /Inside The Animal Mind
Год выпуска: 2014
Страна: Великобритания
Продолжительность: по ~50 мин.
Режиссёр: Мэтт Барретт /Matt Barrett
Перевод: Профессиональный, одноголосый
Русские субтитры: нет
Описание: Вы когда-либо размышляли над тем, почему нам нравится квашеное, солёное, острое и даже заплесневелый зелёный сыр? Почему кое-какие ароматы вызывают голод, а некоторые вызывают дурноту? Ответы на эти и дргие вопросы в документальных фильмах «Животный интеллект»
Релиз группы:
Качество: SATRip
Формат: AVI
Видео: 720x400 (1.80:1), 25 fps, XviD ~1868 kbps, 0.26 bit/pixel
Аудио: 48 kHz, MPEG Layer 3, 2 ch, ~224 kbps
Cэмпл видео: https://yadi.sk/i/BRSQyC5Vd7BLn
MediaInfo:
Общее
Полное имя : D:\Zhivotnyj_intellekt-Organy_chuvstv_(Nauka_2.0)_[rutracker.org].avi
Формат : AVI
Формат/Информация : Audio Video Interleave
Размер файла : 752 Мбайт
Продолжительность : 49 м.
Общий поток : 2102 Кбит/сек
Программа кодирования : VirtualDubMod 1.6.0.0 SURROUND (build 2560/release)
Библиотека кодирования : VirtualDubMod build 2560/release
Видео
Идентификатор : 0
Формат : MPEG-4 Visual
Профиль формата : Advanced [email protected]
Параметр BVOP формата : 1
Параметр QPel формата : Нет
Параметр GMC формата : Без точки перехода
Параметр матрицы формата : Default (MPEG)
Идентификатор кодека : XVID
Идентификатор кодека/Подсказка : XviD
Продолжительность : 49 м.
Битрейт : 1868 Кбит/сек
Ширина : 720 пикселей
Высота : 400 пикселей
Соотношение сторон : 5:4
Соотношение сторон в оригинале : 16:9
Частота кадров : 25,000 кадров/сек
Цветовое пространство : YUV
Субдискретизация насыщенности : 4:2:0
Битовая глубина : 8 бит
Тип развёртки : Прогрессивная
Метод сжатия : С потерями
Бит/(Пиксели*Кадры) : 0.259
Размер потока : 668 Мбайт (89%)
Библиотека кодирования : XviD 64
Аудио
Идентификатор : 1
Формат : MPEG Audio
Версия формата : Version 1
Профиль формата : Layer 3
Режим : Joint stereo
Расширение режима : MS Stereo
Идентификатор кодека : 55
Идентификатор кодека/Подсказка : MP3
Продолжительность : 49 м.
Вид битрейта : Постоянный
Битрейт : 224 Кбит/сек
Каналы : 2 канала
Частота : 48,0 КГц
Метод сжатия : С потерями
Размер потока : 80,1 Мбайт (11%)
Выравнивание : Разделение по промежуткам
Продолжительность промежутка : 40 мс. (1,00 видеокадр)
Время предзагрузки промежутка : 500 мс.
Библиотека кодирования : LAME3.99r
Настройки программы : -m j -V 4 -q 3 -lowpass 19.4 -b 224
Скриншоты (превью, увеличение по клику):
Список фильмов:
1. Органы чувств. Фильм первый (эфир_30.11.2014)
Вы когда-либо размышляли над тем, почему нам нравится квашеное, солёное, острое и даже заплесневелый зелёный сыр? Почему кое-какие ароматы вызывают голод, а некоторые вызывают дурноту? Ответы на эти вопросы в документальном фильме «Животный интеллект. Органы чувств»
Имя файла: 01-Zhivotnyj_intellekt-Organy_chuvstv_30.11.2014.avi
2. Решение задач. Фильм второй (эфир_16.12.2014)
Со времен Аристотеля мы тешим себя постулатом: человека от животных отличает наличие разума. Недавние исследования ученых доказывают, что животные могут запоминать, подражать и даже мечтать. У них есть свой язык, интуиция. Они могут изменять свое поведение в определенных ситуациях, использовать инструменты и решать поставленные задачи…
Имя файла: 02-Zhivotnyj_intellekt-Reshenie_zadach_16.12.2014.avi
3. Секреты социума. Фильм третий (эфир_22.12.2014)
...
Имя файла: 03-Zhivotnyj_intellekt-Sekrety_sociuma_22.12.2014.avi
Добавил: 2. Решение задач. Фильм второй (эфир_16.12.2014) и 3. Секреты социума. Фильм третий (эфир_22.12.2014). Пожалуйста, обновите торрент-файл.
На раздаче по возможности, ~20 Mb/s. > [Что от меня зависит, сделал. Остальное зависит от Вас, трекера и наших провайдеров.]
Download
Для скачивания .torrent файлов необходима регистрация
Сайт не распространяет и не хранит электронные версии произведений, а лишь предоставляет доступ к создаваемому пользователями каталогу ссылок на торрент-файлы, которые содержат только списки хеш-сумм
[Профиль]  [ЛС] 

Chelur

RG Документалисты

Стаж: 10 лет 7 месяцев

Сообщений: 8386

Chelur · 22-Янв-15 17:18 (спустя 1 месяц 19 дней)

[Цитировать] 

Добавил: 2. Решение задач. Фильм второй (эфир_16.12.2014) и 3. Секреты социума. Фильм третий (эфир_22.12.2014). Пожалуйста, обновите торрент-файл.
[Профиль]  [ЛС] 

Burzum666

Стаж: 10 лет 4 месяца

Сообщений: 248

Burzum666 · 15-Мар-15 12:05 (спустя 1 месяц 23 дня)

[Цитировать] 

steven-torres писал(а):
66736390В названии грамматическая ошибка. Но все равно спасибо!
Релизёр давно в курсе. Будет время - исправит ошибки (одну уже, по всей видимости, модератор исправил).
Кстати, о модераторе. Саму тему давно нужно в ветку ВВС США перенести
[Профиль]  [ЛС] 
 
Ответить
Loading...
Error