[BR][OF] Pink Floyd- The Endless River - 2014 (Progressive Rock, Art Rock)

Страницы :  1, 2  След.

Ответить
Автор
Сообщение

marakanчег

Top User 12

Стаж: 12 лет 5 месяцев

Сообщений: 59

marakanчег · 11-Ноя-14 11:54 (4 года назад, ред. 11-Ноя-14 12:04)

Pink Floyd: The Endless River
Жанр: Rock
Продолжительность: 01:20
Год выпуска: 10 ноября
Описание: The Endless River (с англ. Бескрайняя река) — пятнадцатый студийный альбом британской рок-группы Pink Floyd. Продюсером альбома выступит Дэвид Гилмор. Выпуском альбома в Великобритании будет заниматься Parlophone Records, а в США — Warner Bros. Records. Релиз альбома планируется 10 ноября 2014 года. Название альбома «The Endless River» взято из текста песни «High Hopes» из предыдущего альбома группы The Division Bell, который был выпущен 20 лет назад.
Качество: Blu-ray
Контейнер: BDMV
Видео кодек: H.264
Видео: 1080p/AVC MPEG-4
Аудио: English LPCM 5.1 (96 kHz / 13824 kbps / 24-bit)
Аудио 2: English DTS-HD MA 5.1 (96 kHz / 7820 kbps / 24-bit)
Аудио 3: English LPCM 2.0 (96 kHz / 4608 kbps / 24-bit)
Доп. информация: Deluxe 2-Disc Set
CD + Blu-ray includes:
- Album in high resolution 5.1 Stereo
- Plus non-album material (39 min approx): 6 video tracks + 3 audio tracks
- 24-page deluxe hardback booklet
- 3 collectors postcards
- Stereo PCM, 5.1 DTS Master Audio and 5.1 PCM
- All audio in high resolution 96kHz/24bit
- Archive video material from standard definition source
Список композиций:
Side 1, Pt. 1:
1. Side 1, Pt. 1: Things Left Unsaid 04:25
2. Side 1, Pt. 2: It's What We Do 06:21
3. Side 1, Pt. 3: Ebb And Flow 01:50
Side 2, Pt. 1:
4. Side 2, Pt. 1: Sum 04:49
5. Side 2, Pt. 2: Skins 02:38
6. Side 2, Pt. 3: Unsung 01:07
7. Side 2, Pt. 4: Anisina 03:15
Side 3, Pt. 1:
8. Side 3, Pt. 1: The Lost Art Of Conversation 01:44
9. Side 3, Pt. 2: On Noodle Street 01:42
10. Side 3, Pt. 3: Night Light 01:42
11. Side 3, Pt. 4: Allons-y (1) 01:57
12. Side 3, Pt. 5: Autumn '68 01:35
13. Side 3, Pt. 6: Allons-y (2) 01:35
14. Side 3, Pt. 7: Talkin' Hawkin' 03:26
Side 4, Pt. 1:
15. Side 4, Pt. 1: Calling 03:39
16. Side 4, Pt. 2: Eyes To Pearls 01:52
17. Side 4, Pt. 3: Surfacing 02:47
18. Side 4, Pt. 4: Louder Than Words 06:33
Audio Bonus:
19. TBS9 02:28
20. TBS14 04:11
21. Nervana 05:31
Video Bonus:
22. Anisina 2:49
23. Untitled 1:22
24. Evrika (A) 5:58
25. Nervana 5:32
26. Allons-y 6:00
27. Evrika (B) 5:33
Отчёт MediaInfo / BDInfo
Disc Title:     Pink Floyd.The Endless River.2014.BDA1080p
Disc Size: 17 219 539 649 bytes
Protection: AACS
BD-Java: No
BDInfo: 0.5.8
Notes:
BDINFO HOME:
Cinema Squid
http://www.cinemasquid.com/blu-ray/tools/bdinfo
INCLUDES FORUMS REPORT FOR:
AVS Forum Blu-ray Audio and Video Specifications Thread
http://www.avsforum.com/avs-vb/showthread.php?t=1155731
WARNING: Report is incomplete because: Scan has not been run.
********************
PLAYLIST: 00000.MPLS
********************
<--- BEGIN FORUMS PASTE --->
Код:
Total   Video
Title                                                           Codec   Length  Movie Size      Disc Size       Bitrate Bitrate Main Audio Track                          Secondary Audio Track
-----                                                           ------  ------- --------------  --------------  ------- ------- ------------------                        ---------------------
00000.MPLS                                                      AVC     0:52:58 0               17 219 539 649  0,00    0,00    LPCM 2.0 4608Kbps (96kHz/24-bit)          DTS-HD Master 5.1 (96kHz/24-bit)
Код:
DISC INFO:
Disc Title:     Pink Floyd.The Endless River.2014.BDA1080p
Disc Size:      17 219 539 649 bytes
Protection:     AACS
BD-Java:        No
BDInfo:         0.5.8
PLAYLIST REPORT:
Name:                   00000.MPLS
Length:                 0:52:58.550 (h:m:s.ms)
Size:                   0 bytes
Total Bitrate:          0,00 Mbps
VIDEO:
Codec                   Bitrate             Description
-----                   -------             -----------
MPEG-4 AVC Video        0 kbps              1080p / 23,976 fps / 16:9 / High Profile 4.1
AUDIO:
Codec                           Language        Bitrate         Description
-----                           --------        -------         -----------
LPCM Audio                      English         4608 kbps       2.0 / 96 kHz / 4608 kbps / 24-bit
DTS-HD Master Audio             English         0 kbps          5.1 / 96 kHz / 24-bit (DTS Core: 5.1 / 48 kHz / 1509 kbps / 24-bit)
LPCM Audio                      English         13824 kbps      5.1 / 96 kHz / 13824 kbps / 24-bit
FILES:
Name            Time In         Length          Size            Total Bitrate
----            -------         ------          ----            -------------
00011.M2TS      0:00:00.000     0:52:58.550     0               0
CHAPTERS:
Number          Time In         Length          Avg Video Rate  Max 1-Sec Rate  Max 1-Sec Time  Max 5-Sec Rate  Max 5-Sec Time  Max 10Sec Rate  Max 10Sec Time  Avg Frame Size  Max Frame Size  Max Frame Time
------          -------         ------          --------------  --------------  --------------  --------------  --------------  --------------  --------------  --------------  --------------  --------------
1               0:00:00.000     0:04:26.265     0 kbps          0 kbps          00:00:00.000    0 kbps          00:00:00.000    0 kbps          00:00:00.000    0 bytes         0 bytes         00:00:00.000
2               0:04:26.265     0:06:14.916     0 kbps          0 kbps          00:00:00.000    0 kbps          00:00:00.000    0 kbps          00:00:00.000    0 bytes         0 bytes         00:00:00.000
3               0:10:41.182     0:01:57.826     0 kbps          0 kbps          00:00:00.000    0 kbps          00:00:00.000    0 kbps          00:00:00.000    0 bytes         0 bytes         00:00:00.000
4               0:12:39.008     0:04:49.038     0 kbps          0 kbps          00:00:00.000    0 kbps          00:00:00.000    0 kbps          00:00:00.000    0 bytes         0 bytes         00:00:00.000
5               0:17:28.047     0:02:37.574     0 kbps          0 kbps          00:00:00.000    0 kbps          00:00:00.000    0 kbps          00:00:00.000    0 bytes         0 bytes         00:00:00.000
6               0:20:05.621     0:01:06.649     0 kbps          0 kbps          00:00:00.000    0 kbps          00:00:00.000    0 kbps          00:00:00.000    0 bytes         0 bytes         00:00:00.000
7               0:21:12.271     0:03:15.194     0 kbps          0 kbps          00:00:00.000    0 kbps          00:00:00.000    0 kbps          00:00:00.000    0 bytes         0 bytes         00:00:00.000
8               0:24:27.465     0:01:44.104     0 kbps          0 kbps          00:00:00.000    0 kbps          00:00:00.000    0 kbps          00:00:00.000    0 bytes         0 bytes         00:00:00.000
9               0:26:11.570     0:01:42.101     0 kbps          0 kbps          00:00:00.000    0 kbps          00:00:00.000    0 kbps          00:00:00.000    0 bytes         0 bytes         00:00:00.000
10              0:27:53.672     0:01:42.101     0 kbps          0 kbps          00:00:00.000    0 kbps          00:00:00.000    0 kbps          00:00:00.000    0 bytes         0 bytes         00:00:00.000
11              0:29:35.774     0:01:56.699     0 kbps          0 kbps          00:00:00.000    0 kbps          00:00:00.000    0 kbps          00:00:00.000    0 bytes         0 bytes         00:00:00.000
12              0:31:32.473     0:01:35.512     0 kbps          0 kbps          00:00:00.000    0 kbps          00:00:00.000    0 kbps          00:00:00.000    0 bytes         0 bytes         00:00:00.000
13              0:33:07.986     0:01:35.095     0 kbps          0 kbps          00:00:00.000    0 kbps          00:00:00.000    0 kbps          00:00:00.000    0 bytes         0 bytes         00:00:00.000
14              0:34:43.081     0:03:26.205     0 kbps          0 kbps          00:00:00.000    0 kbps          00:00:00.000    0 kbps          00:00:00.000    0 bytes         0 bytes         00:00:00.000
15              0:38:09.286     0:03:38.885     0 kbps          0 kbps          00:00:00.000    0 kbps          00:00:00.000    0 kbps          00:00:00.000    0 bytes         0 bytes         00:00:00.000
16              0:41:48.172     0:01:51.444     0 kbps          0 kbps          00:00:00.000    0 kbps          00:00:00.000    0 kbps          00:00:00.000    0 bytes         0 bytes         00:00:00.000
17              0:43:39.617     0:02:46.708     0 kbps          0 kbps          00:00:00.000    0 kbps          00:00:00.000    0 kbps          00:00:00.000    0 bytes         0 bytes         00:00:00.000
18              0:46:26.325     0:06:32.225     0 kbps          0 kbps          00:00:00.000    0 kbps          00:00:00.000    0 kbps          00:00:00.000    0 bytes         0 bytes         00:00:00.000
STREAM DIAGNOSTICS:
File            PID             Type            Codec           Language                Seconds                 Bitrate                 Bytes           Packets
----            ---             ----            -----           --------                --------------          --------------          -------------   -----
00011.M2TS      4113 (0x1011)   0x1B            AVC                                     0                       0                       0               0
00011.M2TS      4352 (0x1100)   0x80            LPCM            eng (English)           0                       0                       0               0
00011.M2TS      4353 (0x1101)   0x86            DTS-HD MA       eng (English)           0                       0                       0               0
00011.M2TS      4354 (0x1102)   0x80            LPCM            eng (English)           0                       0                       0               0
<---- END FORUMS PASTE ---->
QUICK SUMMARY:
Disc Title: Pink Floyd.The Endless River.2014.BDA1080p
Disc Size: 17 219 539 649 bytes
Protection: AACS
BD-Java: No
Playlist: 00000.MPLS
Size: 0 bytes
Length: 0:52:58.550
Total Bitrate: 0,00 Mbps
Video: MPEG-4 AVC Video / 0 kbps / 1080p / 23,976 fps / 16:9 / High Profile 4.1
Audio: English / LPCM Audio / 2.0 / 96 kHz / 4608 kbps / 24-bit
Audio: English / DTS-HD Master Audio / 5.1 / 96 kHz / 24-bit (DTS Core: 5.1 / 48 kHz / 1509 kbps / 24-bit)
Audio: English / LPCM Audio / 5.1 / 96 kHz / 13824 kbps / 24-bit
********************
PLAYLIST: 00015.MPLS
********************
<--- BEGIN FORUMS PASTE --->
Код:
Total   Video
Title                                                           Codec   Length  Movie Size      Disc Size       Bitrate Bitrate Main Audio Track                          Secondary Audio Track
-----                                                           ------  ------- --------------  --------------  ------- ------- ------------------                        ---------------------
00015.MPLS                                                      AVC     0:14:49 0               17 219 539 649  0,00    0,00    LPCM 2.0 4608Kbps (96kHz/24-bit)          DTS-HD Master 5.1 (96kHz/24-bit)
Код:
DISC INFO:
Disc Title:     Pink Floyd.The Endless River.2014.BDA1080p
Disc Size:      17 219 539 649 bytes
Protection:     AACS
BD-Java:        No
BDInfo:         0.5.8
PLAYLIST REPORT:
Name:                   00015.MPLS
Length:                 0:14:49.263 (h:m:s.ms)
Size:                   0 bytes
Total Bitrate:          0,00 Mbps
VIDEO:
Codec                   Bitrate             Description
-----                   -------             -----------
MPEG-4 AVC Video        0 kbps              1080p / 23,976 fps / 16:9 / High Profile 4.1
AUDIO:
Codec                           Language        Bitrate         Description
-----                           --------        -------         -----------
LPCM Audio                      English         4608 kbps       2.0 / 96 kHz / 4608 kbps / 24-bit
DTS-HD Master Audio             English         0 kbps          5.1 / 96 kHz / 24-bit (DTS Core: 5.1 / 48 kHz / 1509 kbps / 24-bit)
LPCM Audio                      English         13824 kbps      5.1 / 96 kHz / 13824 kbps / 24-bit
FILES:
Name            Time In         Length          Size            Total Bitrate
----            -------         ------          ----            -------------
00011.M2TS      0:00:00.000     0:14:49.263     0               0
CHAPTERS:
Number          Time In         Length          Avg Video Rate  Max 1-Sec Rate  Max 1-Sec Time  Max 5-Sec Rate  Max 5-Sec Time  Max 10Sec Rate  Max 10Sec Time  Avg Frame Size  Max Frame Size  Max Frame Time
------          -------         ------          --------------  --------------  --------------  --------------  --------------  --------------  --------------  --------------  --------------  --------------
1               0:00:00.000     0:03:38.885     0 kbps          0 kbps          00:00:00.000    0 kbps          00:00:00.000    0 kbps          00:00:00.000    0 bytes         0 bytes         00:00:00.000
2               0:03:38.885     0:01:51.444     0 kbps          0 kbps          00:00:00.000    0 kbps          00:00:00.000    0 kbps          00:00:00.000    0 bytes         0 bytes         00:00:00.000
3               0:05:30.330     0:02:46.708     0 kbps          0 kbps          00:00:00.000    0 kbps          00:00:00.000    0 kbps          00:00:00.000    0 bytes         0 bytes         00:00:00.000
4               0:08:17.038     0:06:32.225     0 kbps          0 kbps          00:00:00.000    0 kbps          00:00:00.000    0 kbps          00:00:00.000    0 bytes         0 bytes         00:00:00.000
STREAM DIAGNOSTICS:
File            PID             Type            Codec           Language                Seconds                 Bitrate                 Bytes           Packets
----            ---             ----            -----           --------                --------------          --------------          -------------   -----
00011.M2TS      4113 (0x1011)   0x1B            AVC                                     0                       0                       0               0
00011.M2TS      4352 (0x1100)   0x80            LPCM            eng (English)           0                       0                       0               0
00011.M2TS      4353 (0x1101)   0x86            DTS-HD MA       eng (English)           0                       0                       0               0
00011.M2TS      4354 (0x1102)   0x80            LPCM            eng (English)           0                       0                       0               0
<---- END FORUMS PASTE ---->
QUICK SUMMARY:
Disc Title: Pink Floyd.The Endless River.2014.BDA1080p
Disc Size: 17 219 539 649 bytes
Protection: AACS
BD-Java: No
Playlist: 00015.MPLS
Size: 0 bytes
Length: 0:14:49.263
Total Bitrate: 0,00 Mbps
Video: MPEG-4 AVC Video / 0 kbps / 1080p / 23,976 fps / 16:9 / High Profile 4.1
Audio: English / LPCM Audio / 2.0 / 96 kHz / 4608 kbps / 24-bit
Audio: English / DTS-HD Master Audio / 5.1 / 96 kHz / 24-bit (DTS Core: 5.1 / 48 kHz / 1509 kbps / 24-bit)
Audio: English / LPCM Audio / 5.1 / 96 kHz / 13824 kbps / 24-bit
********************
PLAYLIST: 00014.MPLS
********************
<--- BEGIN FORUMS PASTE --->
Код:
Total   Video
Title                                                           Codec   Length  Movie Size      Disc Size       Bitrate Bitrate Main Audio Track                          Secondary Audio Track
-----                                                           ------  ------- --------------  --------------  ------- ------- ------------------                        ---------------------
00014.MPLS                                                      AVC     0:13:41 0               17 219 539 649  0,00    0,00    LPCM 2.0 4608Kbps (96kHz/24-bit)          DTS-HD Master 5.1 (96kHz/24-bit)
Код:
DISC INFO:
Disc Title:     Pink Floyd.The Endless River.2014.BDA1080p
Disc Size:      17 219 539 649 bytes
Protection:     AACS
BD-Java:        No
BDInfo:         0.5.8
PLAYLIST REPORT:
Name:                   00014.MPLS
Length:                 0:13:41.570 (h:m:s.ms)
Size:                   0 bytes
Total Bitrate:          0,00 Mbps
VIDEO:
Codec                   Bitrate             Description
-----                   -------             -----------
MPEG-4 AVC Video        0 kbps              1080p / 23,976 fps / 16:9 / High Profile 4.1
AUDIO:
Codec                           Language        Bitrate         Description
-----                           --------        -------         -----------
LPCM Audio                      English         4608 kbps       2.0 / 96 kHz / 4608 kbps / 24-bit
DTS-HD Master Audio             English         0 kbps          5.1 / 96 kHz / 24-bit (DTS Core: 5.1 / 48 kHz / 1509 kbps / 24-bit)
LPCM Audio                      English         13824 kbps      5.1 / 96 kHz / 13824 kbps / 24-bit
FILES:
Name            Time In         Length          Size            Total Bitrate
----            -------         ------          ----            -------------
00011.M2TS      0:00:00.000     0:13:41.570     0               0
CHAPTERS:
Number          Time In         Length          Avg Video Rate  Max 1-Sec Rate  Max 1-Sec Time  Max 5-Sec Rate  Max 5-Sec Time  Max 10Sec Rate  Max 10Sec Time  Avg Frame Size  Max Frame Size  Max Frame Time
------          -------         ------          --------------  --------------  --------------  --------------  --------------  --------------  --------------  --------------  --------------  --------------
1               0:00:00.000     0:01:44.104     0 kbps          0 kbps          00:00:00.000    0 kbps          00:00:00.000    0 kbps          00:00:00.000    0 bytes         0 bytes         00:00:00.000
2               0:01:44.104     0:01:42.101     0 kbps          0 kbps          00:00:00.000    0 kbps          00:00:00.000    0 kbps          00:00:00.000    0 bytes         0 bytes         00:00:00.000
3               0:03:26.206     0:01:42.101     0 kbps          0 kbps          00:00:00.000    0 kbps          00:00:00.000    0 kbps          00:00:00.000    0 bytes         0 bytes         00:00:00.000
4               0:05:08.308     0:01:56.699     0 kbps          0 kbps          00:00:00.000    0 kbps          00:00:00.000    0 kbps          00:00:00.000    0 bytes         0 bytes         00:00:00.000
5               0:07:05.007     0:01:35.512     0 kbps          0 kbps          00:00:00.000    0 kbps          00:00:00.000    0 kbps          00:00:00.000    0 bytes         0 bytes         00:00:00.000
6               0:08:40.520     0:01:35.095     0 kbps          0 kbps          00:00:00.000    0 kbps          00:00:00.000    0 kbps          00:00:00.000    0 bytes         0 bytes         00:00:00.000
7               0:10:15.615     0:03:25.955     0 kbps          0 kbps          00:00:00.000    0 kbps          00:00:00.000    0 kbps          00:00:00.000    0 bytes         0 bytes         00:00:00.000
STREAM DIAGNOSTICS:
File            PID             Type            Codec           Language                Seconds                 Bitrate                 Bytes           Packets
----            ---             ----            -----           --------                --------------          --------------          -------------   -----
00011.M2TS      4113 (0x1011)   0x1B            AVC                                     0                       0                       0               0
00011.M2TS      4352 (0x1100)   0x80            LPCM            eng (English)           0                       0                       0               0
00011.M2TS      4353 (0x1101)   0x86            DTS-HD MA       eng (English)           0                       0                       0               0
00011.M2TS      4354 (0x1102)   0x80            LPCM            eng (English)           0                       0                       0               0
<---- END FORUMS PASTE ---->
QUICK SUMMARY:
Disc Title: Pink Floyd.The Endless River.2014.BDA1080p
Disc Size: 17 219 539 649 bytes
Protection: AACS
BD-Java: No
Playlist: 00014.MPLS
Size: 0 bytes
Length: 0:13:41.570
Total Bitrate: 0,00 Mbps
Video: MPEG-4 AVC Video / 0 kbps / 1080p / 23,976 fps / 16:9 / High Profile 4.1
Audio: English / LPCM Audio / 2.0 / 96 kHz / 4608 kbps / 24-bit
Audio: English / DTS-HD Master Audio / 5.1 / 96 kHz / 24-bit (DTS Core: 5.1 / 48 kHz / 1509 kbps / 24-bit)
Audio: English / LPCM Audio / 5.1 / 96 kHz / 13824 kbps / 24-bit
********************
PLAYLIST: 00012.MPLS
********************
<--- BEGIN FORUMS PASTE --->
Код:
Total   Video
Title                                                           Codec   Length  Movie Size      Disc Size       Bitrate Bitrate Main Audio Track                          Secondary Audio Track
-----                                                           ------  ------- --------------  --------------  ------- ------- ------------------                        ---------------------
00012.MPLS                                                      AVC     0:12:38 0               17 219 539 649  0,00    0,00    LPCM 2.0 4608Kbps (96kHz/24-bit)          DTS-HD Master 5.1 (96kHz/24-bit)
Код:
DISC INFO:
Disc Title:     Pink Floyd.The Endless River.2014.BDA1080p
Disc Size:      17 219 539 649 bytes
Protection:     AACS
BD-Java:        No
BDInfo:         0.5.8
PLAYLIST REPORT:
Name:                   00012.MPLS
Length:                 0:12:38.507 (h:m:s.ms)
Size:                   0 bytes
Total Bitrate:          0,00 Mbps
VIDEO:
Codec                   Bitrate             Description
-----                   -------             -----------
MPEG-4 AVC Video        0 kbps              1080p / 23,976 fps / 16:9 / High Profile 4.1
AUDIO:
Codec                           Language        Bitrate         Description
-----                           --------        -------         -----------
LPCM Audio                      English         4608 kbps       2.0 / 96 kHz / 4608 kbps / 24-bit
DTS-HD Master Audio             English         0 kbps          5.1 / 96 kHz / 24-bit (DTS Core: 5.1 / 48 kHz / 1509 kbps / 24-bit)
LPCM Audio                      English         13824 kbps      5.1 / 96 kHz / 13824 kbps / 24-bit
FILES:
Name            Time In         Length          Size            Total Bitrate
----            -------         ------          ----            -------------
00011.M2TS      0:00:00.000     0:12:38.507     0               0
CHAPTERS:
Number          Time In         Length          Avg Video Rate  Max 1-Sec Rate  Max 1-Sec Time  Max 5-Sec Rate  Max 5-Sec Time  Max 10Sec Rate  Max 10Sec Time  Avg Frame Size  Max Frame Size  Max Frame Time
------          -------         ------          --------------  --------------  --------------  --------------  --------------  --------------  --------------  --------------  --------------  --------------
1               0:00:00.000     0:04:26.265     0 kbps          0 kbps          00:00:00.000    0 kbps          00:00:00.000    0 kbps          00:00:00.000    0 bytes         0 bytes         00:00:00.000
2               0:04:26.265     0:06:14.916     0 kbps          0 kbps          00:00:00.000    0 kbps          00:00:00.000    0 kbps          00:00:00.000    0 bytes         0 bytes         00:00:00.000
3               0:10:41.182     0:01:57.325     0 kbps          0 kbps          00:00:00.000    0 kbps          00:00:00.000    0 kbps          00:00:00.000    0 bytes         0 bytes         00:00:00.000
STREAM DIAGNOSTICS:
File            PID             Type            Codec           Language                Seconds                 Bitrate                 Bytes           Packets
----            ---             ----            -----           --------                --------------          --------------          -------------   -----
00011.M2TS      4113 (0x1011)   0x1B            AVC                                     0                       0                       0               0
00011.M2TS      4352 (0x1100)   0x80            LPCM            eng (English)           0                       0                       0               0
00011.M2TS      4353 (0x1101)   0x86            DTS-HD MA       eng (English)           0                       0                       0               0
00011.M2TS      4354 (0x1102)   0x80            LPCM            eng (English)           0                       0                       0               0
<---- END FORUMS PASTE ---->
QUICK SUMMARY:
Disc Title: Pink Floyd.The Endless River.2014.BDA1080p
Disc Size: 17 219 539 649 bytes
Protection: AACS
BD-Java: No
Playlist: 00012.MPLS
Size: 0 bytes
Length: 0:12:38.507
Total Bitrate: 0,00 Mbps
Video: MPEG-4 AVC Video / 0 kbps / 1080p / 23,976 fps / 16:9 / High Profile 4.1
Audio: English / LPCM Audio / 2.0 / 96 kHz / 4608 kbps / 24-bit
Audio: English / DTS-HD Master Audio / 5.1 / 96 kHz / 24-bit (DTS Core: 5.1 / 48 kHz / 1509 kbps / 24-bit)
Audio: English / LPCM Audio / 5.1 / 96 kHz / 13824 kbps / 24-bit
********************
PLAYLIST: 00013.MPLS
********************
<--- BEGIN FORUMS PASTE --->
Код:
Total   Video
Title                                                           Codec   Length  Movie Size      Disc Size       Bitrate Bitrate Main Audio Track                          Secondary Audio Track
-----                                                           ------  ------- --------------  --------------  ------- ------- ------------------                        ---------------------
00013.MPLS                                                      AVC     0:11:48 0               17 219 539 649  0,00    0,00    LPCM 2.0 4608Kbps (96kHz/24-bit)          DTS-HD Master 5.1 (96kHz/24-bit)
Код:
DISC INFO:
Disc Title:     Pink Floyd.The Endless River.2014.BDA1080p
Disc Size:      17 219 539 649 bytes
Protection:     AACS
BD-Java:        No
BDInfo:         0.5.8
PLAYLIST REPORT:
Name:                   00013.MPLS
Length:                 0:11:48.207 (h:m:s.ms)
Size:                   0 bytes
Total Bitrate:          0,00 Mbps
VIDEO:
Codec                   Bitrate             Description
-----                   -------             -----------
MPEG-4 AVC Video        0 kbps              1080p / 23,976 fps / 16:9 / High Profile 4.1
AUDIO:
Codec                           Language        Bitrate         Description
-----                           --------        -------         -----------
LPCM Audio                      English         4608 kbps       2.0 / 96 kHz / 4608 kbps / 24-bit
DTS-HD Master Audio             English         0 kbps          5.1 / 96 kHz / 24-bit (DTS Core: 5.1 / 48 kHz / 1509 kbps / 24-bit)
LPCM Audio                      English         13824 kbps      5.1 / 96 kHz / 13824 kbps / 24-bit
FILES:
Name            Time In         Length          Size            Total Bitrate
----            -------         ------          ----            -------------
00011.M2TS      0:00:00.000     0:11:48.207     0               0
CHAPTERS:
Number          Time In         Length          Avg Video Rate  Max 1-Sec Rate  Max 1-Sec Time  Max 5-Sec Rate  Max 5-Sec Time  Max 10Sec Rate  Max 10Sec Time  Avg Frame Size  Max Frame Size  Max Frame Time
------          -------         ------          --------------  --------------  --------------  --------------  --------------  --------------  --------------  --------------  --------------  --------------
1               0:00:00.000     0:04:49.038     0 kbps          0 kbps          00:00:00.000    0 kbps          00:00:00.000    0 kbps          00:00:00.000    0 bytes         0 bytes         00:00:00.000
2               0:04:49.038     0:02:37.574     0 kbps          0 kbps          00:00:00.000    0 kbps          00:00:00.000    0 kbps          00:00:00.000    0 bytes         0 bytes         00:00:00.000
3               0:07:26.612     0:01:06.649     0 kbps          0 kbps          00:00:00.000    0 kbps          00:00:00.000    0 kbps          00:00:00.000    0 bytes         0 bytes         00:00:00.000
4               0:08:33.262     0:03:14.944     0 kbps          0 kbps          00:00:00.000    0 kbps          00:00:00.000    0 kbps          00:00:00.000    0 bytes         0 bytes         00:00:00.000
STREAM DIAGNOSTICS:
File            PID             Type            Codec           Language                Seconds                 Bitrate                 Bytes           Packets
----            ---             ----            -----           --------                --------------          --------------          -------------   -----
00011.M2TS      4113 (0x1011)   0x1B            AVC                                     0                       0                       0               0
00011.M2TS      4352 (0x1100)   0x80            LPCM            eng (English)           0                       0                       0               0
00011.M2TS      4353 (0x1101)   0x86            DTS-HD MA       eng (English)           0                       0                       0               0
00011.M2TS      4354 (0x1102)   0x80            LPCM            eng (English)           0                       0                       0               0
<---- END FORUMS PASTE ---->
QUICK SUMMARY:
Disc Title: Pink Floyd.The Endless River.2014.BDA1080p
Disc Size: 17 219 539 649 bytes
Protection: AACS
BD-Java: No
Playlist: 00013.MPLS
Size: 0 bytes
Length: 0:11:48.207
Total Bitrate: 0,00 Mbps
Video: MPEG-4 AVC Video / 0 kbps / 1080p / 23,976 fps / 16:9 / High Profile 4.1
Audio: English / LPCM Audio / 2.0 / 96 kHz / 4608 kbps / 24-bit
Audio: English / DTS-HD Master Audio / 5.1 / 96 kHz / 24-bit (DTS Core: 5.1 / 48 kHz / 1509 kbps / 24-bit)
Audio: English / LPCM Audio / 5.1 / 96 kHz / 13824 kbps / 24-bit
********************
PLAYLIST: 00010.MPLS
********************
<--- BEGIN FORUMS PASTE --->
Код:
Total   Video
Title                                                           Codec   Length  Movie Size      Disc Size       Bitrate Bitrate Main Audio Track                          Secondary Audio Track
-----                                                           ------  ------- --------------  --------------  ------- ------- ------------------                        ---------------------
00010.MPLS                                                      AVC     0:39:15 0               17 219 539 649  0,00    0,00    LPCM 2.0 4608Kbps (96kHz/24-bit)
Код:
DISC INFO:
Disc Title:     Pink Floyd.The Endless River.2014.BDA1080p
Disc Size:      17 219 539 649 bytes
Protection:     AACS
BD-Java:        No
BDInfo:         0.5.8
PLAYLIST REPORT:
Name:                   00010.MPLS
Length:                 0:39:15.936 (h:m:s.ms)
Size:                   0 bytes
Total Bitrate:          0,00 Mbps
VIDEO:
Codec                   Bitrate             Description
-----                   -------             -----------
MPEG-4 AVC Video        0 kbps              1080p / 23,976 fps / 16:9 / High Profile 4.1
AUDIO:
Codec                           Language        Bitrate         Description
-----                           --------        -------         -----------
LPCM Audio                      English         4608 kbps       2.0 / 96 kHz / 4608 kbps / 24-bit
FILES:
Name            Time In         Length          Size            Total Bitrate
----            -------         ------          ----            -------------
00002.M2TS      0:00:00.000     0:02:48.751     0               0
00003.M2TS      0:02:48.751     0:01:20.288     0               0
00004.M2TS      0:04:09.040     0:05:56.147     0               0
00005.M2TS      0:10:05.187     0:05:30.705     0               0
00006.M2TS      0:15:35.893     0:05:58.232     0               0
00010.M2TS      0:21:34.126     0:05:31.372     0               0
00007.M2TS      0:27:05.498     0:02:28.106     0               0
00009.M2TS      0:29:33.605     0:04:11.292     0               0
00008.M2TS      0:33:44.897     0:05:31.039     0               0
CHAPTERS:
Number          Time In         Length          Avg Video Rate  Max 1-Sec Rate  Max 1-Sec Time  Max 5-Sec Rate  Max 5-Sec Time  Max 10Sec Rate  Max 10Sec Time  Avg Frame Size  Max Frame Size  Max Frame Time
------          -------         ------          --------------  --------------  --------------  --------------  --------------  --------------  --------------  --------------  --------------  --------------
1               0:00:00.000     0:02:48.751     0 kbps          0 kbps          00:00:00.000    0 kbps          00:00:00.000    0 kbps          00:00:00.000    0 bytes         0 bytes         00:00:00.000
2               0:02:48.751     0:01:20.288     0 kbps          0 kbps          00:00:00.000    0 kbps          00:00:00.000    0 kbps          00:00:00.000    0 bytes         0 bytes         00:00:00.000
3               0:04:09.040     0:05:56.147     0 kbps          0 kbps          00:00:00.000    0 kbps          00:00:00.000    0 kbps          00:00:00.000    0 bytes         0 bytes         00:00:00.000
4               0:10:05.187     0:05:30.705     0 kbps          0 kbps          00:00:00.000    0 kbps          00:00:00.000    0 kbps          00:00:00.000    0 bytes         0 bytes         00:00:00.000
5               0:15:35.893     0:05:58.232     0 kbps          0 kbps          00:00:00.000    0 kbps          00:00:00.000    0 kbps          00:00:00.000    0 bytes         0 bytes         00:00:00.000
6               0:21:34.126     0:05:31.372     0 kbps          0 kbps          00:00:00.000    0 kbps          00:00:00.000    0 kbps          00:00:00.000    0 bytes         0 bytes         00:00:00.000
7               0:27:05.498     0:02:28.106     0 kbps          0 kbps          00:00:00.000    0 kbps          00:00:00.000    0 kbps          00:00:00.000    0 bytes         0 bytes         00:00:00.000
8               0:29:33.605     0:04:11.292     0 kbps          0 kbps          00:00:00.000    0 kbps          00:00:00.000    0 kbps          00:00:00.000    0 bytes         0 bytes         00:00:00.000
9               0:33:44.897     0:05:31.039     0 kbps          0 kbps          00:00:00.000    0 kbps          00:00:00.000    0 kbps          00:00:00.000    0 bytes         0 bytes         00:00:00.000
STREAM DIAGNOSTICS:
File            PID             Type            Codec           Language                Seconds                 Bitrate                 Bytes           Packets
----            ---             ----            -----           --------                --------------          --------------          -------------   -----
00002.M2TS      4113 (0x1011)   0x1B            AVC                                     0,125                   0                       0               0
00002.M2TS      4352 (0x1100)   0x80            LPCM            eng (English)           0,125                   0                       0               0
00003.M2TS      4113 (0x1011)   0x1B            AVC                                     0                       0                       0               0
00003.M2TS      4352 (0x1100)   0x80            LPCM            eng (English)           0                       0                       0               0
00004.M2TS      4113 (0x1011)   0x1B            AVC                                     0                       0                       0               0
00004.M2TS      4352 (0x1100)   0x80            LPCM            eng (English)           0                       0                       0               0
00005.M2TS      4113 (0x1011)   0x1B            AVC                                     0                       0                       0               0
00005.M2TS      4352 (0x1100)   0x80            LPCM            eng (English)           0                       0                       0               0
00006.M2TS      4113 (0x1011)   0x1B            AVC                                     0                       0                       0               0
00006.M2TS      4352 (0x1100)   0x80            LPCM            eng (English)           0                       0                       0               0
00010.M2TS      4113 (0x1011)   0x1B            AVC                                     0                       0                       0               0
00010.M2TS      4352 (0x1100)   0x80            LPCM            eng (English)           0                       0                       0               0
00007.M2TS      4113 (0x1011)   0x1B            AVC                                     0                       0                       0               0
00007.M2TS      4352 (0x1100)   0x80            LPCM            eng (English)           0                       0                       0               0
00009.M2TS      4113 (0x1011)   0x1B            AVC                                     0                       0                       0               0
00009.M2TS      4352 (0x1100)   0x80            LPCM            eng (English)           0                       0                       0               0
00008.M2TS      4113 (0x1011)   0x1B            AVC                                     0                       0                       0               0
00008.M2TS      4352 (0x1100)   0x80            LPCM            eng (English)           0                       0                       0               0
<---- END FORUMS PASTE ---->
QUICK SUMMARY:
Disc Title: Pink Floyd.The Endless River.2014.BDA1080p
Disc Size: 17 219 539 649 bytes
Protection: AACS
BD-Java: No
Playlist: 00010.MPLS
Size: 0 bytes
Length: 0:39:15.936
Total Bitrate: 0,00 Mbps
Video: MPEG-4 AVC Video / 0 kbps / 1080p / 23,976 fps / 16:9 / High Profile 4.1
Audio: English / LPCM Audio / 2.0 / 96 kHz / 4608 kbps / 24-bit
********************
PLAYLIST: 00005.MPLS
********************
<--- BEGIN FORUMS PASTE --->
Код:
Total   Video
Title                                                           Codec   Length  Movie Size      Disc Size       Bitrate Bitrate Main Audio Track                          Secondary Audio Track
-----                                                           ------  ------- --------------  --------------  ------- ------- ------------------                        ---------------------
00005.MPLS                                                      AVC     0:05:58 0               17 219 539 649  0,00    0,00    LPCM 2.0 4608Kbps (96kHz/24-bit)
Код:
DISC INFO:
Disc Title:     Pink Floyd.The Endless River.2014.BDA1080p
Disc Size:      17 219 539 649 bytes
Protection:     AACS
BD-Java:        No
BDInfo:         0.5.8
PLAYLIST REPORT:
Name:                   00005.MPLS
Length:                 0:05:58.232 (h:m:s.ms)
Size:                   0 bytes
Total Bitrate:          0,00 Mbps
VIDEO:
Codec                   Bitrate             Description
-----                   -------             -----------
MPEG-4 AVC Video        0 kbps              1080p / 23,976 fps / 16:9 / High Profile 4.1
AUDIO:
Codec                           Language        Bitrate         Description
-----                           --------        -------         -----------
LPCM Audio                      English         4608 kbps       2.0 / 96 kHz / 4608 kbps / 24-bit
FILES:
Name            Time In         Length          Size            Total Bitrate
----            -------         ------          ----            -------------
00006.M2TS      0:00:00.000     0:05:58.232     0               0
CHAPTERS:
Number          Time In         Length          Avg Video Rate  Max 1-Sec Rate  Max 1-Sec Time  Max 5-Sec Rate  Max 5-Sec Time  Max 10Sec Rate  Max 10Sec Time  Avg Frame Size  Max Frame Size  Max Frame Time
------          -------         ------          --------------  --------------  --------------  --------------  --------------  --------------  --------------  --------------  --------------  --------------
1               0:00:00.000     0:05:58.232     0 kbps          0 kbps          00:00:00.000    0 kbps          00:00:00.000    0 kbps          00:00:00.000    0 bytes         0 bytes         00:00:00.000
STREAM DIAGNOSTICS:
File            PID             Type            Codec           Language                Seconds                 Bitrate                 Bytes           Packets
----            ---             ----            -----           --------                --------------          --------------          -------------   -----
00006.M2TS      4113 (0x1011)   0x1B            AVC                                     0                       0                       0               0
00006.M2TS      4352 (0x1100)   0x80            LPCM            eng (English)           0                       0                       0               0
<---- END FORUMS PASTE ---->
QUICK SUMMARY:
Disc Title: Pink Floyd.The Endless River.2014.BDA1080p
Disc Size: 17 219 539 649 bytes
Protection: AACS
BD-Java: No
Playlist: 00005.MPLS
Size: 0 bytes
Length: 0:05:58.232
Total Bitrate: 0,00 Mbps
Video: MPEG-4 AVC Video / 0 kbps / 1080p / 23,976 fps / 16:9 / High Profile 4.1
Audio: English / LPCM Audio / 2.0 / 96 kHz / 4608 kbps / 24-bit
********************
PLAYLIST: 00003.MPLS
********************
<--- BEGIN FORUMS PASTE --->
Код:
Total   Video
Title                                                           Codec   Length  Movie Size      Disc Size       Bitrate Bitrate Main Audio Track                          Secondary Audio Track
-----                                                           ------  ------- --------------  --------------  ------- ------- ------------------                        ---------------------
00003.MPLS                                                      AVC     0:05:56 0               17 219 539 649  0,00    0,00    LPCM 2.0 4608Kbps (96kHz/24-bit)
Код:
DISC INFO:
Disc Title:     Pink Floyd.The Endless River.2014.BDA1080p
Disc Size:      17 219 539 649 bytes
Protection:     AACS
BD-Java:        No
BDInfo:         0.5.8
PLAYLIST REPORT:
Name:                   00003.MPLS
Length:                 0:05:56.147 (h:m:s.ms)
Size:                   0 bytes
Total Bitrate:          0,00 Mbps
VIDEO:
Codec                   Bitrate             Description
-----                   -------             -----------
MPEG-4 AVC Video        0 kbps              1080p / 23,976 fps / 16:9 / High Profile 4.1
AUDIO:
Codec                           Language        Bitrate         Description
-----                           --------        -------         -----------
LPCM Audio                      English         4608 kbps       2.0 / 96 kHz / 4608 kbps / 24-bit
FILES:
Name            Time In         Length          Size            Total Bitrate
----            -------         ------          ----            -------------
00004.M2TS      0:00:00.000     0:05:56.147     0               0
CHAPTERS:
Number          Time In         Length          Avg Video Rate  Max 1-Sec Rate  Max 1-Sec Time  Max 5-Sec Rate  Max 5-Sec Time  Max 10Sec Rate  Max 10Sec Time  Avg Frame Size  Max Frame Size  Max Frame Time
------          -------         ------          --------------  --------------  --------------  --------------  --------------  --------------  --------------  --------------  --------------  --------------
1               0:00:00.000     0:05:56.147     0 kbps          0 kbps          00:00:00.000    0 kbps          00:00:00.000    0 kbps          00:00:00.000    0 bytes         0 bytes         00:00:00.000
STREAM DIAGNOSTICS:
File            PID             Type            Codec           Language                Seconds                 Bitrate                 Bytes           Packets
----            ---             ----            -----           --------                --------------          --------------          -------------   -----
00004.M2TS      4113 (0x1011)   0x1B            AVC                                     0                       0                       0               0
00004.M2TS      4352 (0x1100)   0x80            LPCM            eng (English)           0                       0                       0               0
<---- END FORUMS PASTE ---->
QUICK SUMMARY:
Disc Title: Pink Floyd.The Endless River.2014.BDA1080p
Disc Size: 17 219 539 649 bytes
Protection: AACS
BD-Java: No
Playlist: 00003.MPLS
Size: 0 bytes
Length: 0:05:56.147
Total Bitrate: 0,00 Mbps
Video: MPEG-4 AVC Video / 0 kbps / 1080p / 23,976 fps / 16:9 / High Profile 4.1
Audio: English / LPCM Audio / 2.0 / 96 kHz / 4608 kbps / 24-bit
********************
PLAYLIST: 00006.MPLS
********************
<--- BEGIN FORUMS PASTE --->
Код:
Total   Video
Title                                                           Codec   Length  Movie Size      Disc Size       Bitrate Bitrate Main Audio Track                          Secondary Audio Track
-----                                                           ------  ------- --------------  --------------  ------- ------- ------------------                        ---------------------
00006.MPLS                                                      AVC     0:05:31 0               17 219 539 649  0,00    0,00    LPCM 2.0 4608Kbps (96kHz/24-bit)
Код:
DISC INFO:
Disc Title:     Pink Floyd.The Endless River.2014.BDA1080p
Disc Size:      17 219 539 649 bytes
Protection:     AACS
BD-Java:        No
BDInfo:         0.5.8
PLAYLIST REPORT:
Name:                   00006.MPLS
Length:                 0:05:31.372 (h:m:s.ms)
Size:                   0 bytes
Total Bitrate:          0,00 Mbps
VIDEO:
Codec                   Bitrate             Description
-----                   -------             -----------
MPEG-4 AVC Video        0 kbps              1080p / 23,976 fps / 16:9 / High Profile 4.1
AUDIO:
Codec                           Language        Bitrate         Description
-----                           --------        -------         -----------
LPCM Audio                      English         4608 kbps       2.0 / 96 kHz / 4608 kbps / 24-bit
FILES:
Name            Time In         Length          Size            Total Bitrate
----            -------         ------          ----            -------------
00010.M2TS      0:00:00.000     0:05:31.372     0               0
CHAPTERS:
Number          Time In         Length          Avg Video Rate  Max 1-Sec Rate  Max 1-Sec Time  Max 5-Sec Rate  Max 5-Sec Time  Max 10Sec Rate  Max 10Sec Time  Avg Frame Size  Max Frame Size  Max Frame Time
------          -------         ------          --------------  --------------  --------------  --------------  --------------  --------------  --------------  --------------  --------------  --------------
1               0:00:00.000     0:05:31.372     0 kbps          0 kbps          00:00:00.000    0 kbps          00:00:00.000    0 kbps          00:00:00.000    0 bytes         0 bytes         00:00:00.000
STREAM DIAGNOSTICS:
File            PID             Type            Codec           Language                Seconds                 Bitrate                 Bytes           Packets
----            ---             ----            -----           --------                --------------          --------------          -------------   -----
00010.M2TS      4113 (0x1011)   0x1B            AVC                                     0                       0                       0               0
00010.M2TS      4352 (0x1100)   0x80            LPCM            eng (English)           0                       0                       0               0
<---- END FORUMS PASTE ---->
QUICK SUMMARY:
Disc Title: Pink Floyd.The Endless River.2014.BDA1080p
Disc Size: 17 219 539 649 bytes
Protection: AACS
BD-Java: No
Playlist: 00006.MPLS
Size: 0 bytes
Length: 0:05:31.372
Total Bitrate: 0,00 Mbps
Video: MPEG-4 AVC Video / 0 kbps / 1080p / 23,976 fps / 16:9 / High Profile 4.1
Audio: English / LPCM Audio / 2.0 / 96 kHz / 4608 kbps / 24-bit
********************
PLAYLIST: 00009.MPLS
********************
<--- BEGIN FORUMS PASTE --->
Код:
Total   Video
Title                                                           Codec   Length  Movie Size      Disc Size       Bitrate Bitrate Main Audio Track                          Secondary Audio Track
-----                                                           ------  ------- --------------  --------------  ------- ------- ------------------                        ---------------------
00009.MPLS                                                      AVC     0:05:31 0               17 219 539 649  0,00    0,00    LPCM 2.0 4608Kbps (96kHz/24-bit)
Код:
DISC INFO:
Disc Title:     Pink Floyd.The Endless River.2014.BDA1080p
Disc Size:      17 219 539 649 bytes
Protection:     AACS
BD-Java:        No
BDInfo:         0.5.8
PLAYLIST REPORT:
Name:                   00009.MPLS
Length:                 0:05:31.039 (h:m:s.ms)
Size:                   0 bytes
Total Bitrate:          0,00 Mbps
VIDEO:
Codec                   Bitrate             Description
-----                   -------             -----------
MPEG-4 AVC Video        0 kbps              1080p / 23,976 fps / 16:9 / High Profile 4.1
AUDIO:
Codec                           Language        Bitrate         Description
-----                           --------        -------         -----------
LPCM Audio                      English         4608 kbps       2.0 / 96 kHz / 4608 kbps / 24-bit
FILES:
Name            Time In         Length          Size            Total Bitrate
----            -------         ------          ----            -------------
00008.M2TS      0:00:00.000     0:05:31.039     0               0
CHAPTERS:
Number          Time In         Length          Avg Video Rate  Max 1-Sec Rate  Max 1-Sec Time  Max 5-Sec Rate  Max 5-Sec Time  Max 10Sec Rate  Max 10Sec Time  Avg Frame Size  Max Frame Size  Max Frame Time
------          -------         ------          --------------  --------------  --------------  --------------  --------------  --------------  --------------  --------------  --------------  --------------
1               0:00:00.000     0:05:31.039     0 kbps          0 kbps          00:00:00.000    0 kbps          00:00:00.000    0 kbps          00:00:00.000    0 bytes         0 bytes         00:00:00.000
STREAM DIAGNOSTICS:
File            PID             Type            Codec           Language                Seconds                 Bitrate                 Bytes           Packets
----            ---             ----            -----           --------                --------------          --------------          -------------   -----
00008.M2TS      4113 (0x1011)   0x1B            AVC                                     0                       0                       0               0
00008.M2TS      4352 (0x1100)   0x80            LPCM            eng (English)           0                       0                       0               0
<---- END FORUMS PASTE ---->
QUICK SUMMARY:
Disc Title: Pink Floyd.The Endless River.2014.BDA1080p
Disc Size: 17 219 539 649 bytes
Protection: AACS
BD-Java: No
Playlist: 00009.MPLS
Size: 0 bytes
Length: 0:05:31.039
Total Bitrate: 0,00 Mbps
Video: MPEG-4 AVC Video / 0 kbps / 1080p / 23,976 fps / 16:9 / High Profile 4.1
Audio: English / LPCM Audio / 2.0 / 96 kHz / 4608 kbps / 24-bit
********************
PLAYLIST: 00004.MPLS
********************
<--- BEGIN FORUMS PASTE --->
Код:
Total   Video
Title                                                           Codec   Length  Movie Size      Disc Size       Bitrate Bitrate Main Audio Track                          Secondary Audio Track
-----                                                           ------  ------- --------------  --------------  ------- ------- ------------------                        ---------------------
00004.MPLS                                                      AVC     0:05:30 0               17 219 539 649  0,00    0,00    LPCM 2.0 4608Kbps (96kHz/24-bit)
Код:
DISC INFO:
Disc Title:     Pink Floyd.The Endless River.2014.BDA1080p
Disc Size:      17 219 539 649 bytes
Protection:     AACS
BD-Java:        No
BDInfo:         0.5.8
PLAYLIST REPORT:
Name:                   00004.MPLS
Length:                 0:05:30.705 (h:m:s.ms)
Size:                   0 bytes
Total Bitrate:          0,00 Mbps
VIDEO:
Codec                   Bitrate             Description
-----                   -------             -----------
MPEG-4 AVC Video        0 kbps              1080p / 23,976 fps / 16:9 / High Profile 4.1
AUDIO:
Codec                           Language        Bitrate         Description
-----                           --------        -------         -----------
LPCM Audio                      English         4608 kbps       2.0 / 96 kHz / 4608 kbps / 24-bit
FILES:
Name            Time In         Length          Size            Total Bitrate
----            -------         ------          ----            -------------
00005.M2TS      0:00:00.000     0:05:30.705     0               0
CHAPTERS:
Number          Time In         Length          Avg Video Rate  Max 1-Sec Rate  Max 1-Sec Time  Max 5-Sec Rate  Max 5-Sec Time  Max 10Sec Rate  Max 10Sec Time  Avg Frame Size  Max Frame Size  Max Frame Time
------          -------         ------          --------------  --------------  --------------  --------------  --------------  --------------  --------------  --------------  --------------  --------------
1               0:00:00.000     0:05:30.705     0 kbps          0 kbps          00:00:00.000    0 kbps          00:00:00.000    0 kbps          00:00:00.000    0 bytes         0 bytes         00:00:00.000
STREAM DIAGNOSTICS:
File            PID             Type            Codec           Language                Seconds                 Bitrate                 Bytes           Packets
----            ---             ----            -----           --------                --------------          --------------          -------------   -----
00005.M2TS      4113 (0x1011)   0x1B            AVC                                     0                       0                       0               0
00005.M2TS      4352 (0x1100)   0x80            LPCM            eng (English)           0                       0                       0               0
<---- END FORUMS PASTE ---->
QUICK SUMMARY:
Disc Title: Pink Floyd.The Endless River.2014.BDA1080p
Disc Size: 17 219 539 649 bytes
Protection: AACS
BD-Java: No
Playlist: 00004.MPLS
Size: 0 bytes
Length: 0:05:30.705
Total Bitrate: 0,00 Mbps
Video: MPEG-4 AVC Video / 0 kbps / 1080p / 23,976 fps / 16:9 / High Profile 4.1
Audio: English / LPCM Audio / 2.0 / 96 kHz / 4608 kbps / 24-bit
********************
PLAYLIST: 00008.MPLS
********************
<--- BEGIN FORUMS PASTE --->
Код:
Total   Video
Title                                                           Codec   Length  Movie Size      Disc Size       Bitrate Bitrate Main Audio Track                          Secondary Audio Track
-----                                                           ------  ------- --------------  --------------  ------- ------- ------------------                        ---------------------
00008.MPLS                                                      AVC     0:04:11 0               17 219 539 649  0,00    0,00    LPCM 2.0 4608Kbps (96kHz/24-bit)
Код:
DISC INFO:
Disc Title:     Pink Floyd.The Endless River.2014.BDA1080p
Disc Size:      17 219 539 649 bytes
Protection:     AACS
BD-Java:        No
BDInfo:         0.5.8
PLAYLIST REPORT:
Name:                   00008.MPLS
Length:                 0:04:11.292 (h:m:s.ms)
Size:                   0 bytes
Total Bitrate:          0,00 Mbps
VIDEO:
Codec                   Bitrate             Description
-----                   -------             -----------
MPEG-4 AVC Video        0 kbps              1080p / 23,976 fps / 16:9 / High Profile 4.1
AUDIO:
Codec                           Language        Bitrate         Description
-----                           --------        -------         -----------
LPCM Audio                      English         4608 kbps       2.0 / 96 kHz / 4608 kbps / 24-bit
FILES:
Name            Time In         Length          Size            Total Bitrate
----            -------         ------          ----            -------------
00009.M2TS      0:00:00.000     0:04:11.292     0               0
CHAPTERS:
Number          Time In         Length          Avg Video Rate  Max 1-Sec Rate  Max 1-Sec Time  Max 5-Sec Rate  Max 5-Sec Time  Max 10Sec Rate  Max 10Sec Time  Avg Frame Size  Max Frame Size  Max Frame Time
------          -------         ------          --------------  --------------  --------------  --------------  --------------  --------------  --------------  --------------  --------------  --------------
1               0:00:00.000     0:04:11.292     0 kbps          0 kbps          00:00:00.000    0 kbps          00:00:00.000    0 kbps          00:00:00.000    0 bytes         0 bytes         00:00:00.000
STREAM DIAGNOSTICS:
File            PID             Type            Codec           Language                Seconds                 Bitrate                 Bytes           Packets
----            ---             ----            -----           --------                --------------          --------------          -------------   -----
00009.M2TS      4113 (0x1011)   0x1B            AVC                                     0                       0                       0               0
00009.M2TS      4352 (0x1100)   0x80            LPCM            eng (English)           0                       0                       0               0
<---- END FORUMS PASTE ---->
QUICK SUMMARY:
Disc Title: Pink Floyd.The Endless River.2014.BDA1080p
Disc Size: 17 219 539 649 bytes
Protection: AACS
BD-Java: No
Playlist: 00008.MPLS
Size: 0 bytes
Length: 0:04:11.292
Total Bitrate: 0,00 Mbps
Video: MPEG-4 AVC Video / 0 kbps / 1080p / 23,976 fps / 16:9 / High Profile 4.1
Audio: English / LPCM Audio / 2.0 / 96 kHz / 4608 kbps / 24-bit
********************
PLAYLIST: 00001.MPLS
********************
<--- BEGIN FORUMS PASTE --->
Код:
Total   Video
Title                                                           Codec   Length  Movie Size      Disc Size       Bitrate Bitrate Main Audio Track                          Secondary Audio Track
-----                                                           ------  ------- --------------  --------------  ------- ------- ------------------                        ---------------------
00001.MPLS                                                      AVC     0:02:48 0               17 219 539 649  0,00    0,00    LPCM 2.0 4608Kbps (96kHz/24-bit)
Код:
DISC INFO:
Disc Title:     Pink Floyd.The Endless River.2014.BDA1080p
Disc Size:      17 219 539 649 bytes
Protection:     AACS
BD-Java:        No
BDInfo:         0.5.8
PLAYLIST REPORT:
Name:                   00001.MPLS
Length:                 0:02:48.751 (h:m:s.ms)
Size:                   0 bytes
Total Bitrate:          0,00 Mbps
VIDEO:
Codec                   Bitrate             Description
-----                   -------             -----------
MPEG-4 AVC Video        0 kbps              1080p / 23,976 fps / 16:9 / High Profile 4.1
AUDIO:
Codec                           Language        Bitrate         Description
-----                           --------        -------         -----------
LPCM Audio                      English         4608 kbps       2.0 / 96 kHz / 4608 kbps / 24-bit
FILES:
Name            Time In         Length          Size            Total Bitrate
----            -------         ------          ----            -------------
00002.M2TS      0:00:00.000     0:02:48.751     0               0
CHAPTERS:
Number          Time In         Length          Avg Video Rate  Max 1-Sec Rate  Max 1-Sec Time  Max 5-Sec Rate  Max 5-Sec Time  Max 10Sec Rate  Max 10Sec Time  Avg Frame Size  Max Frame Size  Max Frame Time
------          -------         ------          --------------  --------------  --------------  --------------  --------------  --------------  --------------  --------------  --------------  --------------
1               0:00:00.000     0:02:48.751     0 kbps          0 kbps          00:00:00.000    0 kbps          00:00:00.000    0 kbps          00:00:00.000    0 bytes         0 bytes         00:00:00.000
STREAM DIAGNOSTICS:
File            PID             Type            Codec           Language                Seconds                 Bitrate                 Bytes           Packets
----            ---             ----            -----           --------                --------------          --------------          -------------   -----
00002.M2TS      4113 (0x1011)   0x1B            AVC                                     0,125                   0                       0               0
00002.M2TS      4352 (0x1100)   0x80            LPCM            eng (English)           0,125                   0                       0               0
<---- END FORUMS PASTE ---->
QUICK SUMMARY:
Disc Title: Pink Floyd.The Endless River.2014.BDA1080p
Disc Size: 17 219 539 649 bytes
Protection: AACS
BD-Java: No
Playlist: 00001.MPLS
Size: 0 bytes
Length: 0:02:48.751
Total Bitrate: 0,00 Mbps
Video: MPEG-4 AVC Video / 0 kbps / 1080p / 23,976 fps / 16:9 / High Profile 4.1
Audio: English / LPCM Audio / 2.0 / 96 kHz / 4608 kbps / 24-bit
********************
PLAYLIST: 00007.MPLS
********************
<--- BEGIN FORUMS PASTE --->
Код:
Total   Video
Title                                                           Codec   Length  Movie Size      Disc Size       Bitrate Bitrate Main Audio Track                          Secondary Audio Track
-----                                                           ------  ------- --------------  --------------  ------- ------- ------------------                        ---------------------
00007.MPLS                                                      AVC     0:02:28 0               17 219 539 649  0,00    0,00    LPCM 2.0 4608Kbps (96kHz/24-bit)
Код:
DISC INFO:
Disc Title:     Pink Floyd.The Endless River.2014.BDA1080p
Disc Size:      17 219 539 649 bytes
Protection:     AACS
BD-Java:        No
BDInfo:         0.5.8
PLAYLIST REPORT:
Name:                   00007.MPLS
Length:                 0:02:28.106 (h:m:s.ms)
Size:                   0 bytes
Total Bitrate:          0,00 Mbps
VIDEO:
Codec                   Bitrate             Description
-----                   -------             -----------
MPEG-4 AVC Video        0 kbps              1080p / 23,976 fps / 16:9 / High Profile 4.1
AUDIO:
Codec                           Language        Bitrate         Description
-----                           --------        -------         -----------
LPCM Audio                      English         4608 kbps       2.0 / 96 kHz / 4608 kbps / 24-bit
FILES:
Name            Time In         Length          Size            Total Bitrate
----            -------         ------          ----            -------------
00007.M2TS      0:00:00.000     0:02:28.106     0               0
CHAPTERS:
Number          Time In         Length          Avg Video Rate  Max 1-Sec Rate  Max 1-Sec Time  Max 5-Sec Rate  Max 5-Sec Time  Max 10Sec Rate  Max 10Sec Time  Avg Frame Size  Max Frame Size  Max Frame Time
------          -------         ------          --------------  --------------  --------------  --------------  --------------  --------------  --------------  --------------  --------------  --------------
1               0:00:00.000     0:02:28.106     0 kbps          0 kbps          00:00:00.000    0 kbps          00:00:00.000    0 kbps          00:00:00.000    0 bytes         0 bytes         00:00:00.000
STREAM DIAGNOSTICS:
File            PID             Type            Codec           Language                Seconds                 Bitrate                 Bytes           Packets
----            ---             ----            -----           --------                --------------          --------------          -------------   -----
00007.M2TS      4113 (0x1011)   0x1B            AVC                                     0                       0                       0               0
00007.M2TS      4352 (0x1100)   0x80            LPCM            eng (English)           0                       0                       0               0
<---- END FORUMS PASTE ---->
QUICK SUMMARY:
Disc Title: Pink Floyd.The Endless River.2014.BDA1080p
Disc Size: 17 219 539 649 bytes
Protection: AACS
BD-Java: No
Playlist: 00007.MPLS
Size: 0 bytes
Length: 0:02:28.106
Total Bitrate: 0,00 Mbps
Video: MPEG-4 AVC Video / 0 kbps / 1080p / 23,976 fps / 16:9 / High Profile 4.1
Audio: English / LPCM Audio / 2.0 / 96 kHz / 4608 kbps / 24-bit
********************
PLAYLIST: 00002.MPLS
********************
<--- BEGIN FORUMS PASTE --->
Код:
Total   Video
Title                                                           Codec   Length  Movie Size      Disc Size       Bitrate Bitrate Main Audio Track                          Secondary Audio Track
-----                                                           ------  ------- --------------  --------------  ------- ------- ------------------                        ---------------------
00002.MPLS                                                      AVC     0:01:20 0               17 219 539 649  0,00    0,00    LPCM 2.0 4608Kbps (96kHz/24-bit)
Код:
DISC INFO:
Disc Title:     Pink Floyd.The Endless River.2014.BDA1080p
Disc Size:      17 219 539 649 bytes
Protection:     AACS
BD-Java:        No
BDInfo:         0.5.8
PLAYLIST REPORT:
Name:                   00002.MPLS
Length:                 0:01:20.288 (h:m:s.ms)
Size:                   0 bytes
Total Bitrate:          0,00 Mbps
VIDEO:
Codec                   Bitrate             Description
-----                   -------             -----------
MPEG-4 AVC Video        0 kbps              1080p / 23,976 fps / 16:9 / High Profile 4.1
AUDIO:
Codec                           Language        Bitrate         Description
-----                           --------        -------         -----------
LPCM Audio                      English         4608 kbps       2.0 / 96 kHz / 4608 kbps / 24-bit
FILES:
Name            Time In         Length          Size            Total Bitrate
----            -------         ------          ----            -------------
00003.M2TS      0:00:00.000     0:01:20.288     0               0
CHAPTERS:
Number          Time In         Length          Avg Video Rate  Max 1-Sec Rate  Max 1-Sec Time  Max 5-Sec Rate  Max 5-Sec Time  Max 10Sec Rate  Max 10Sec Time  Avg Frame Size  Max Frame Size  Max Frame Time
------          -------         ------          --------------  --------------  --------------  --------------  --------------  --------------  --------------  --------------  --------------  --------------
1               0:00:00.000     0:01:20.288     0 kbps          0 kbps          00:00:00.000    0 kbps          00:00:00.000    0 kbps          00:00:00.000    0 bytes         0 bytes         00:00:00.000
STREAM DIAGNOSTICS:
File            PID             Type            Codec           Language                Seconds                 Bitrate                 Bytes           Packets
----            ---             ----            -----           --------                --------------          --------------          -------------   -----
00003.M2TS      4113 (0x1011)   0x1B            AVC                                     0                       0                       0               0
00003.M2TS      4352 (0x1100)   0x80            LPCM            eng (English)           0                       0                       0               0
<---- END FORUMS PASTE ---->
QUICK SUMMARY:
Disc Title: Pink Floyd.The Endless River.2014.BDA1080p
Disc Size: 17 219 539 649 bytes
Protection: AACS
BD-Java: No
Playlist: 00002.MPLS
Size: 0 bytes
Length: 0:01:20.288
Total Bitrate: 0,00 Mbps
Video: MPEG-4 AVC Video / 0 kbps / 1080p / 23,976 fps / 16:9 / High Profile 4.1
Audio: English / LPCM Audio / 2.0 / 96 kHz / 4608 kbps / 24-bit
Скриншоты
Download
Для скачивания .torrent файлов необходима регистрация
Сайт не распространяет и не хранит электронные версии произведений, а лишь предоставляет доступ к создаваемому пользователями каталогу ссылок на торрент-файлы, которые содержат только списки хеш-сумм
[Профиль]  [ЛС] 

abm1968

Стаж: 11 лет 1 месяц

Сообщений: 249

abm1968 · 11-Ноя-14 15:33 (спустя 3 часа)

[Цитировать] 

Спасибо!
А рецензия дурная, написана просто неграмотным человеком.
С ней всё ясно со слов про "дух Баррета" и "дух коммерции".
[Профиль]  [ЛС] 

purplemac

Стаж: 6 лет 2 месяца

Сообщений: 109


purplemac · 11-Ноя-14 16:02 (спустя 29 мин.)

[Цитировать] 

Рецензия и в самом деле тупая. Человек либо ярый поклонник Баррета, либо просто обкурился. А в отношении нового - старого релиза Пинков, он почти прав. Народ, в основной своей массе не зная истины, покупал альбом как НОВОЕ творение группы. На поверку оказалось, что там материал, не вошедший в последний альбом, буквально обрывки музыкальных фраз. Лучше бы они указали на обложке - outtakes. Грустно все это. Жалко, что так вот закончилась история великой группы. Раздающему - респект!
[Профиль]  [ЛС] 

Fother2

Стаж: 7 лет 3 месяца

Сообщений: 249

Fother2 · 11-Ноя-14 16:05 (спустя 2 мин.)

[Цитировать] 

purplemac писал(а):
65793570закончилась история великой группы
Sad but true..............
[Профиль]  [ЛС] 

Antikomarin

Стаж: 4 года 5 месяцев

Сообщений: 61

Antikomarin · 11-Ноя-14 16:38 (спустя 33 мин., ред. 11-Ноя-14 16:45)

[Цитировать] 

Как вообще можно было повестись на это?Какое-НОВОЕ?Откуда ему взяться?Уотерс и на выстрел не подходит к Гилмору,и в этой записи он не участвовал.Райт-там,откуда его никому уже не под силу вытащить.Гилмор и Мэйсон,это ещё не "Пинк Флойд",при всём великом уважении к ним.Поставлю ка я лучше старый добрый P.U.L.S.E. помяну и Райта ещё раз и некогда Великую группу.Или вот это посмотрите-тут они ещё все вместе и молодые: http://rutracker.org/forum/viewtopic.php?t=4858326
[Профиль]  [ЛС] 

CATFISH-2

Стаж: 9 лет 2 месяца

Сообщений: 1885

CATFISH-2 · 11-Ноя-14 16:57 (спустя 18 мин., ред. 11-Ноя-14 16:57)

[Цитировать] 

purplemac писал(а):
65793570Лучше бы они указали на обложке - outtakes
....и адзын синггл
Копипаст с кинозала : В написании текста к композиции «Louder Than Words» приняла участие супруга Дэвида Гилмора Полли Сэмсон. Концепция обложки, на которой мужчина управляет лодкой в облачной реке, была разработана 18-летним диджитал-художником из Египта Ахмедом Эмадом Элдином.
фуфел кароч и позоруха , без WATERS'a =это давно не PF
rusbandy
вот супер-рецензия,мне лично не легче
http://modny.spb.ru/articles/terpfreview
[Профиль]  [ЛС] 

СтарикЪ

Стаж: 7 лет 11 месяцев

Сообщений: 1604

СтарикЪ · 11-Ноя-14 18:04 (спустя 1 час 7 мин.)

[Цитировать] 

Skunks писал(а):
65794633Диск не для этого раздела.
Blu-ray AUdio
[Профиль]  [ЛС] 

HDEND

Стаж: 11 лет

Сообщений: 533

HDEND · 11-Ноя-14 19:12 (спустя 1 час 7 мин.)

[Цитировать] 

раздающий позабыл видеоряд прилепить к звуку, для этого раздела.
[Профиль]  [ЛС] 

ValGUU

Стаж: 9 лет 10 месяцев

Сообщений: 232

ValGUU · 11-Ноя-14 21:18 (спустя 2 часа 5 мин.)

[Цитировать] 

Выскажу своё мнение...
Как по мне..., если "выдёргивать" из контекста, "а не смотреть на картину в целом", то уверяю... в самом идеальном можно столько дерьма наскрести что тошно станет...! И главное... постарайтесь найти свою точку зрения не смотря на многочисленные рецензии..., от себя скажу одно!
Этот альбом не будет забыт!
p.s
в коллекцию.
[Профиль]  [ЛС] 

NikG51

Стаж: 9 лет 4 месяца

Сообщений: 463

NikG51 · 11-Ноя-14 21:43 (спустя 25 мин.)

[Цитировать] 

Пусть будет. Радуемся. Думаю, лет через 10-15-20 неопубликованные-демо песни Тимати будут издавать и усе.... Грустно. Пусть хоть так.
[Профиль]  [ЛС] 

germanmts

Стаж: 8 лет 8 месяцев

Сообщений: 10


germanmts · 11-Ноя-14 22:42 (спустя 59 мин.)

[Цитировать] 

Чтобы не говорили и не писали Pink Floyd это Pink Floyd. С тимати даже сравнивать как то неудобно. Даже через 20 лет.
[Профиль]  [ЛС] 

kardio_graf

Стаж: 10 лет

Сообщений: 94

kardio_graf · 12-Ноя-14 02:51 (спустя 4 часа)

[Цитировать] 

А мне понравилось.
Пинк Флойд без Уотерса - не Пинк Флойд... Ну это спорно, всё-таки они без него альбомы записывали, которые звучали именно, как Пинк Флойд. И на этом альбоме, как только вступает Мэйсон паралельно к гитаре и клавишам, сразу всё звучит по-пинкфлойдовски. И, поверьте, я знаю, о чём пишу. В школе, когда-то давно, очень любил "Стену", а теперь я её слушать не хочу. А безуоторсовские альбомы, как раз нравятся. И первый альбом тоже очень люблю. И всё-таки, этот последний - тоже Пинк Флойд. И не только на бумаге, но и по духу.
Мне особенно третья сторона нравится. Очень уж солидно. Какая-нибудь среднеарифметическая группа так написать не сможет.
[Профиль]  [ЛС] 

purplemac

Стаж: 6 лет 2 месяца

Сообщений: 109


purplemac · 12-Ноя-14 06:58 (спустя 4 часа)

[Цитировать] 

"( HDEND ) - раздающий позабыл видеоряд прилепить к звуку, для этого раздела." - видеоряд, как раз, присутствует. Диск в правильном разделе.
[Профиль]  [ЛС] 

troshin sv

Стаж: 8 лет 4 месяца

Сообщений: 427


troshin sv · 12-Ноя-14 07:15 (спустя 17 мин.)

[Цитировать] 

Скан дисочка не подгоните?Большой пожалуйста.....
[Профиль]  [ЛС] 

rusbandy

Стаж: 9 лет 3 месяца

Сообщений: 46

rusbandy · 12-Ноя-14 08:45 (спустя 1 час 29 мин.)

[Цитировать] 

Да, это последнее, что можно было выжать. Группа уже 35 лет дышит на ладан.
[Профиль]  [ЛС] 

leo_the_metal

Стаж: 10 лет 9 месяцев

Сообщений: 52


leo_the_metal · 12-Ноя-14 11:11 (спустя 2 часа 26 мин.)

[Цитировать] 

Ну, что они могли сказать, они уже сказали в семидесятых. В целом-хорошая музыка, и по любому рвет на части идиотизм с названием Final cut, несмотря на то, что там был роджер уотерс, а тут нет
[Профиль]  [ЛС] 

HDEND

Стаж: 11 лет

Сообщений: 533

HDEND · 12-Ноя-14 13:05 (спустя 1 час 53 мин., ред. 12-Ноя-14 13:05)

[Цитировать] 

purplemac писал(а):
65801439"видеоряд, как раз, присутствует. Диск в правильном разделе.
Pink Floyd - The Endless River (2014) Blu-ray Audio
конечно, именно по той причине в шапке скриншоты видео клипов прям напиханы
скрытый текст
[Профиль]  [ЛС] 

NikG51

Стаж: 9 лет 4 месяца

Сообщений: 463

NikG51 · 12-Ноя-14 13:28 (спустя 23 мин.)

[Цитировать] 

germanmts писал(а):
65798762Чтобы не говорили и не писали Pink Floyd это Pink Floyd. С тимати даже сравнивать как то неудобно. Даже через 20 лет.
Вам неудобно.
90% людей в РАССЕИ + КрымНАШ знают Тимати, и не знают кто такая пинк Флойд.
Удобно, не удобно...
[Профиль]  [ЛС] 

хризантопуло

Стаж: 8 лет 8 месяцев

Сообщений: 14

хризантопуло · 12-Ноя-14 19:14 (спустя 5 часов)

[Цитировать] 

Цитата:
90% людей в РАССЕИ + КрымНАШ знают Тимати, и не знают кто такая пинк Флойд.
красиво сказано. душу радуетъ.
[Профиль]  [ЛС] 

vovaz007

Top User 02

Стаж: 9 лет 2 месяца

Сообщений: 5994

vovaz007 · 12-Ноя-14 20:15 (спустя 1 час 1 мин.)

[Цитировать] 

germanmts писал(а):
65798762Чтобы не говорили и не писали Pink Floyd это Pink Floyd. С тимати даже сравнивать как то неудобно. Даже через 20 лет.
100%
[Профиль]  [ЛС] 

73_Paul

Стаж: 8 лет

Сообщений: 38

73_Paul · 12-Ноя-14 20:53 (спустя 38 мин.)

[Цитировать] 

Antikomarin грубовато, конечно, выразился, но в целом с тобой согласен
[Профиль]  [ЛС] 

stasyanT

Стаж: 9 лет 3 месяца

Сообщений: 76

stasyanT · 12-Ноя-14 21:10 (спустя 16 мин.)

[Цитировать] 

по сути многоканального микса кто что может сказать?
[Профиль]  [ЛС] 

magtorr

Стаж: 7 лет 2 месяца

Сообщений: 4


magtorr · 12-Ноя-14 21:25 (спустя 14 мин., ред. 12-Ноя-14 23:45)

[Цитировать] 

Antikomarin писал(а):
65793930Как вообще можно было повестись на это?Какое-НОВОЕ?Откуда ему взяться?Уотерс и на выстрел не подходит к Гилмору,и в этой записи он не участвовал.Райт-там,откуда его никому уже не под силу вытащить.Гилмор и Мэйсон,это ещё не "Пинк Флойд",при всём великом уважении к ним.Поставлю ка я лучше старый добрый P.U.L.S.E. помяну и Райта ещё раз и некогда Великую группу.Или вот это посмотрите-тут они ещё все вместе и молодые: http://rutracker.org/forum/viewtopic.php?t=4858326
это конечно вы великий специалист насчет кто к кому не подходит, слегонца подотстали лет на 10.
так к сведению в 2011 году на концерте в Лондоне посмотрите что сказал Уотерс
https://www.youtube.com/watch?v=TTHX6VsU2ZA
вызвав Дейва он говорит - "это еще одно раскаяние этого вечера", и вызывает Мэсона
после песни так же говорит о том что все изменилось и тп и тд
в альбоме не участвовал Уотерс, но не из-за пушечных выстрелов.
Райт там очень откуда, половина треков его, записаны ранее.
https://ru.wikipedia.org/wiki/The_Endless_River
но вам то виднее конечно как оно у них там
[Профиль]  [ЛС] 

ZIvanopolo

Стаж: 9 лет 11 месяцев

Сообщений: 84

ZIvanopolo · 13-Ноя-14 12:48 (спустя 15 часов, ред. 14-Ноя-14 14:16)

[Цитировать] 

NikG51
хризантопуло
Это прелестно! Один наверно белая кость и второй древний укр рассуждают про 90 процентов народа. Моментально возвысились, поплёвывают и эякулируют от собственного превосходства. А сами на трекере за халявой ошиваются.
Вы оба и есть то самое быдло... Сидите на своих жирных и прыщавых жопах
и молча слушайте Pink Floyd. Наслаждайтесь.
[Профиль]  [ЛС] 

Efim Voronon

Стаж: 7 лет 8 месяцев

Сообщений: 74


Efim Voronon · 13-Ноя-14 19:57 (спустя 7 часов)

[Цитировать] 

А вот здесь можно скачать полноценный DVD AUDIO. Проверял работает. https://cloud.mail.ru/public/2f1cc8d9ecca/PF-TER2014.ISO
[Профиль]  [ЛС] 

imy

Стаж: 8 лет 6 месяцев

Сообщений: 61

imy · 14-Ноя-14 17:17 (спустя 21 час, ред. 14-Ноя-14 17:17)

[Цитировать] 

ZIvanopolo писал(а):
65814383Сидите на своих жирных и прыщавых жопах
Духовностью потянуло Вот что бывает с теми кто Пинкфлойд слушает!
[Профиль]  [ЛС] 

torrentvehicle

Стаж: 8 лет 9 месяцев

Сообщений: 27

torrentvehicle · 15-Ноя-14 11:24 (спустя 18 часов)

[Цитировать] 

Скажите, пожалуйста, а как возможно дорожку English LPCM 5.1 (96 kHz / 13824 kbps / 24-bit) вытянуть, чтобы она была в формате .flac? Как когда-то делали с Immersion DSOTM и WYWH?
[Профиль]  [ЛС] 

stasyanT

Стаж: 9 лет 3 месяца

Сообщений: 76

stasyanT · 17-Ноя-14 00:43 (спустя 1 день 13 часов, ред. 17-Ноя-14 00:43)

[Цитировать] 

... тогда сам поделюсь. Первое прослушивание по принципиальным причинам ТОЛЬКО в многоканале. Соглашусь с мнениями, что альбом хорошо собран, разнообразен, динамика и спокойные фрагменты интересно перемешаны. Зная заранее, что альбом инструментален - полностью настраиваешься на МУЗЫКУ!!! Многоканальность и объемность очень комфортная, но все же приглушить тылы до "-4" пришлось, недостатка и избытка тыла не ощущалось - полное заполнение простраства. А вот как раз на вступлении вокала, понимаешь что что-то не то... чистый вокал гилмора, в заранее распространенной и прослушанной песне, в многоканале как-то размазан по правому звуковому полю (не однозначно локализован) отчасти во фронтах и правом тылу - не очень приятное распределение "на моё ухо".
Ну формально и по ощущениям для меня это альбом Pink Floyd !
... одно мнение из множества индивидуальных...
Спасибо.
[Профиль]  [ЛС] 

virako4a

Стаж: 9 лет 4 месяца

Сообщений: 686


virako4a · 17-Ноя-14 11:40 (спустя 10 часов, ред. 17-Ноя-14 16:19)

[Цитировать] 

torrentvehicle писал(а):
65836447Скажите, пожалуйста, а как возможно дорожку English LPCM 5.1 (96 kHz / 13824 kbps / 24-bit) вытянуть, чтобы она была в формате .flac? Как когда-то делали с Immersion DSOTM и WYWH?
Лучше всего простая прога eac3to (поищите на трекере про нее, нет линка под рукой).
Конкретно, каталог для извлечения дорожки такой
BDMV\STREAM
файл такой
00011.m2ts
и в командной строке такая команда :
eac3to 00011.m2ts 1: chapters.txt 5: LPCM_5-1.flac
где chapters.txt и LPCM_5-1.flac -- произвольные имена с нужными расширениями (может быть пых.txt и флак5-1.flac),
а 1: и 5: номера нужных дорожек.
-------
P.S. Пардон, ошибку исправил.
[Профиль]  [ЛС] 

ichbinich

Победители конкурсов

Стаж: 7 лет 3 месяца

Сообщений: 1876

ichbinich · 23-Ноя-14 06:01 (спустя 5 дней)

[Цитировать] 

Просто класс какой-то. Особенно понравилась дорожка DTS-HD MA.
[Профиль]  [ЛС] 
 
Ответить
Loading...
Error