Быстрые и Громкие / Fast N' Loud / Сезон 04 / Серий 09 / Discovery HD [2014, США, Развлекательное шоу, DVB-S2 Remux, 1080i, RU]

Страницы:  1

Ответить
Автор
Сообщение

SashaR.

Стаж: 10 лет 1 месяц

Сообщений: 2102

SashaR. · 24-Сен-14 20:37 (4 года 2 месяца назад, ред. 02-Янв-15 04:03)

Быстрые и Громкие / Fast N' Loud
Страна: США
Режиссер: Aaron Krummel
Жанр: Развлекательное шоу
Дата выпуска: 2014
Продолжительность: ~44 мин. серия
Перевод: Одноголосый закадровый
Субтитры: нет
Описание: Знакомьтесь с Ричардом Роулинсом. У него нюх на выгодные сделки, глаз-алмаз что касается машин и язык без костей. И с Аароном Кауфманом - самый выдающийся механик на планете. Нет такой машины, которую он не разобрал бы и не собрал заново за очень короткое время. Они вместе владеют гаражом Gas Monkey в Далласе (штат Техас). Что они делают? Тюнингуют машины за деньги, превращая ржавчину в золото. Они проезжают сотни километров в поисках редких автомобилей, которые обычно спрятанные в сараях уже более 50 лет. Иногда требуется совсем небольшое количество работы и времени на починку машины. А иногда нам нужно заменить двигатель, колеса или салон. Они работают быстро и громко!
Качество видео: DVB-S2 Remux
Формат видео: TS
Видео: AVC, 1920x1080, 16:9, 8613 Kbps, 25 fps
Аудио: AC-3, 384 Kbps, 48.0 kHz, 6 channels
Состав раздачи
Fast N' Loud S04E07 - Flugtag Flyer • Wicked Wayfarer
Fast N' Loud S04E08 - 71 Cool Kingswood. Retro Replicar
Fast N' Loud S04E13 - Troll’s Choice Rolls-Royce
Fast N' Loud S04E14 - Aaron's Falcon Racecar
Fast N' Loud S04E15 - Mustang Mania
Fast N' Loud S04E18 - Demolition Theater
Fast N' Loud S04E20 - Holy Grail Firebirds, Part 2
Fast N' Loud S04E21 - Top 50 Moments
Fast N' Loud S04E22 - Fast Moving F100
Media Info
F:\Раздачи\Fast N' Loud S04\Fast N' Loud S04E22 - Fast Moving F100.ts
General #6
ID : 6 (0x6)
Complete name : F:\Раздачи\Fast N' Loud S04\Fast N' Loud S04E22 - Fast Moving F100.ts
Format : MPEG-TS
File size : 3.10 GiB
Duration : 43mn 44s
Overall bit rate mode : Variable
Overall bit rate : 10.1 Mbps
Video #325
ID : 325 (0x145)
Menu ID : 12105 (0x2F49)
Format : AVC
Format/Info : Advanced Video Codec
Format profile : [email protected]
Format settings, CABAC : Yes
Format settings, ReFrames : 4 frames
Codec ID : 27
Duration : 43mn 43s
Bit rate : 9 242 Kbps
Width : 1 920 pixels
Height : 1 080 pixels
Display aspect ratio : 16:9
Frame rate : 25.000 fps
Standard : Component
Color space : YUV
Chroma subsampling : 4:2:0
Bit depth : 8 bits
Scan type : Interlaced
Scan order : Top Field First
Bits/(Pixel*Frame) : 0.178
Stream size : 2.82 GiB (91%)
Color primaries : BT.709
Transfer characteristics : BT.709
Matrix coefficients : BT.709
Audio #405
ID : 405 (0x195)
Menu ID : 12105 (0x2F49)
Format : AC-3
Format/Info : Audio Coding 3
Mode extension : CM (complete main)
Format settings, Endianness : Big
Codec ID : 6
Duration : 43mn 44s
Bit rate mode : Constant
Bit rate : 384 Kbps
Channel count : 6 channels
Channel positions : Front: L C R, Side: L R, LFE
Sampling rate : 48.0 KHz
Bit depth : 16 bits
Compression mode : Lossy
Delay relative to video : -20ms
Stream size : 120 MiB (4%)
Language : Russian
Language, more info : Clean effects
Скриншоты
Download
Для скачивания .torrent файлов необходима регистрация
Сайт не распространяет и не хранит электронные версии произведений, а лишь предоставляет доступ к создаваемому пользователями каталогу ссылок на торрент-файлы, которые содержат только списки хеш-сумм
[Профиль]  [ЛС] 

SashaR.

Стаж: 10 лет 1 месяц

Сообщений: 2102

SashaR. · 27-Сен-14 14:18 (спустя 2 дня 17 часов, ред. 28-Сен-14 01:59)

[Цитировать] 

Добавлено:
Fast N' Loud S04E07 - Flugtag Flyer • Wicked Wayfarer
Fast N' Loud S04E13 - Troll’s Choice Rolls-Royce
Fast N' Loud S04E14 - Aaron's Falcon Racecar
Fast N' Loud S04E15 - Mustang Mania
Fast N' Loud S04E20 - Holy Grail Firebirds, Part 2
[Профиль]  [ЛС] 

nic 1

Стаж: 6 лет 8 месяцев

Сообщений: 2


nic 1 · 07-Окт-14 06:35 (спустя 9 дней)

[Цитировать] 

еще надо доложить
16 "Jacked-до Джип" 31 марта 2014 2.06 [ 53 ]
Аарон и экипаж газа Обезьяна капитальный ремонт Джип в 24 часов, чтобы удивить друга. Ричард переворачивает напуганный Чайка крыльями Bricklin. Дафна убеждает неохотно Ричарда нанять своего племянника. Деннис и Ричард спорят, как лучше продавать свою Copo Camaros.
17 "Fleetline Superflip Frenzy" 7 апреля 2014 2.23 [ 54 ]
Это газ Обезьяна своих Продажа когда Ричард быстро переворачивается зверинец автомобилей, чтобы сделать достаточно денег, чтобы выкупить первый автомобиль он и Аарон, построенный вместе 10 лет назад. Ричард Деннис буквально бросить кости на 57 Chevy назад в снежной Миннесоты.
18 "Снос театр" 14 апреля 2014 1,72 [ 55 ]
Ричард и Аарон съежиться вместе с вами во время просмотра некоторые серьезно эпопея терпит неудачу-от несчастных водителей, неспособных контролировать свои транспортные средства к hotrodder, который ловит его двигатель и сам в огне. Ричард даже имеет свой собственный пресмыкаться достойные момент в каскадером плоскости.
19 "Святой Грааль Firebirds, Часть 1" 21 апреля 2014 1.88 [ 56 ]
Ричард заключает сделку, чтобы восстановить первые два Firebirds все сделал, который приходит со строгим срока и дорогой казни; Аарон узнает расы.
[Профиль]  [ЛС] 

dino-7

Стаж: 8 лет 4 месяца

Сообщений: 12


dino-7 · 28-Окт-14 12:05 (спустя 21 день)

[Цитировать] 

кто может сделать серии по 1.5 гига и залить в мкв формате?
[Профиль]  [ЛС] 

5k_Riders

Стаж: 10 лет 11 месяцев

Сообщений: 2


5k_Riders · 27-Дек-14 03:20 (спустя 1 месяц 29 дней)

[Цитировать] 

где посмотреть недостающие серии? в контакте все изъяты... может кто успел сохранить?
[Профиль]  [ЛС] 

liudmila1968

Стаж: 9 лет 1 месяц

Сообщений: 5


liudmila1968 · 01-Янв-15 10:56 (спустя 5 дней)

[Цитировать] 

SashaR. спасибо! С Новым годом! Можешь записать еще эти серии:
Fast N' Loud S04E16 - Jacked-up Jeep
Fast N' Loud S04E17 - Fleetline Superflip Frenzy
Fast N' Loud S04E18 - Demolition Theater
Fast N' Loud S04E19 - Holy Grail Firebirds, Part 1
Fast N' Loud S04E21 - Top 50 Moments
[Профиль]  [ЛС] 

SashaR.

Стаж: 10 лет 1 месяц

Сообщений: 2102

SashaR. · 02-Янв-15 04:12 (спустя 17 часов)

[Цитировать] 

Добавлены серии:
Fast N' Loud S04E18 - Demolition Theater
Fast N' Loud S04E21 - Top 50 Moments
[Профиль]  [ЛС] 

Pochwowed

Стаж: 8 лет 9 месяцев

Сообщений: 29

Pochwowed · 04-Янв-15 11:26 (спустя 2 дня 7 часов, ред. 04-Янв-15 11:26)

[Цитировать] 

Осталось всего 3 серии с 4 сезона:
Fast N' Loud S04E16 - Jacked-up Jeep
Fast N' Loud S04E17 - Fleetline Superflip Frenzy
Fast N' Loud S04E19 - Holy Grail Firebirds, Part 1
SashaR. Спасибо за труды.
[Профиль]  [ЛС] 

b66

Стаж: 11 лет 2 месяца

Сообщений: 235


b66 · 04-Янв-15 17:39 (спустя 6 часов)

[Цитировать] 

Огромное спасибо за труд и раздачу!! С Новым годом!! Желаю успеха, добра и радости.
[Профиль]  [ЛС] 

Misha0343

Стаж: 4 года

Сообщений: 4


Misha0343 · 12-Янв-15 01:22 (спустя 7 дней)

[Цитировать] 

Спасибо за раздачу! еще бы три недостающие серии увидеть:)
[Профиль]  [ЛС] 
 
Ответить
Loading...
Error