Крутой тюнинг / Overhaulin' (Сезон 7) (Обновлено 05.04.2015) Discovery Channel HD (RUS) [2013, США, Развлекательное шоу, HDTV, 1080i]

Страницы:  1

Ответить
Автор
Сообщение

БэстЛайв

Стаж: 8 лет 1 месяц

Сообщений: 470

БэстЛайв · 10-Июл-14 18:07 (4 года назад, ред. 05-Апр-15 09:05)

Крутой тюнинг / Overhaulin' (Сезон 7) Серии 1-9
Страна: США
Жанр: Авто-шоу, Развлекательное шоу
Дата выпуска: 2013
Продолжительность: 44 мин
Перевод: Профессиональный (одноголосый закадровый - Discovery Channel)
Канал: Discovery Channel HD (RUS)
Ведущие: Chris Jacobs, Jessi Combs, Chip Foose
Описание: Самый лучший автодизайнер самоучка Чип Фуз возвращается на телеэкран со своим популярным телешоу Крутой тюнинг. Команда А продолжает свою работу. Как и прежде, за неделю усердной работы они превращают старые автомобили в выставочные экспонаты.
Концепция передачи отличается от ряда других «шоу обновления» тем, что переделка автомобиля производится без ведома его главного владельца, называемого в терминологии шоу «жертвой».
Официальный список серий
Семпл: http://multi-up.com/985470
Обновлено 05.04.2015. Добавлены 5 эпизодов с S07E05 по S07E09
Автор записи: BLS (БэстЛайв)
Качество видео: HDTV 1080i
Формат видео: TS
Видео: AVC; 1920x1080i (16:9); 25.000 fps, 8 572 Kbps
Аудио 1: RUS AC3; 48000 Hz; 6 ch; 384 kbps
Аудио 2: ENG AC3; 48000 Hz; 6 ch; 384 kbps
MediaInfo
General
ID : 1 (0x1)
Complete name : Overhaulin.S07E01.Sarahs.Skylark.1080i.HDTV.H.264.DD5.1-BLS.ts
Format : MPEG-TS
File size : 3.01 GiB
Duration : 43mn 47s
Overall bit rate mode : Variable
Overall bit rate : 9 834 Kbps
Maximum Overall bit rate : 35.5 Mbps
Video
ID : 4113 (0x1011)
Menu ID : 1 (0x1)
Format : AVC
Format/Info : Advanced Video Codec
Format profile : [email protected]
Format settings, CABAC : Yes
Format settings, ReFrames : 3 frames
Codec ID : 27
Duration : 43mn 47s
Bit rate mode : Variable
Bit rate : 8 572 Kbps
Maximum bit rate : 40.0 Mbps
Width : 1 920 pixels
Height : 1 080 pixels
Display aspect ratio : 16:9
Frame rate : 25.000 fps
Standard : Component
Color space : YUV
Chroma subsampling : 4:2:0
Bit depth : 8 bits
Scan type : Interlaced
Scan order : Top Field First
Bits/(Pixel*Frame) : 0.165
Stream size : 2.62 GiB (87%)
Color primaries : BT.709
Transfer characteristics : BT.709
Matrix coefficients : BT.709
Audio #1
ID : 4352 (0x1100)
Menu ID : 1 (0x1)
Format : AC-3
Format/Info : Audio Coding 3
Mode extension : CM (complete main)
Format settings, Endianness : Big
Codec ID : 129
Duration : 43mn 47s
Bit rate mode : Constant
Bit rate : 384 Kbps
Channel(s) : 6 channels
Channel positions : Front: L C R, Side: L R, LFE
Sampling rate : 48.0 KHz
Bit depth : 16 bits
Compression mode : Lossy
Stream size : 120 MiB (4%)
Language : Russian
Audio #2
ID : 4353 (0x1101)
Menu ID : 1 (0x1)
Format : AC-3
Format/Info : Audio Coding 3
Mode extension : CM (complete main)
Format settings, Endianness : Big
Codec ID : 129
Duration : 43mn 47s
Bit rate mode : Constant
Bit rate : 384 Kbps
Channel(s) : 6 channels
Channel positions : Front: L C R, Side: L R, LFE
Sampling rate : 48.0 KHz
Bit depth : 16 bits
Compression mode : Lossy
Stream size : 120 MiB (4%)
Language : English
Список серий, скриншоты
S07E01. Sarah's Skylark
S07E02. Bill's 1965 Mustang Fastback
S07E03. Scott's 1967 Chevy Pickup Truck
S07E04. Victor's 1967 Ford Bronco
S07E05. Efrain's Olds 442
S07E06. Ricky's New Impala
S07E07. Lanny's '67 Ford Fairlane GTA
S07E08. Roger's '61 Impala Bubble Top
S07E09. Josh's '63 Nova
Download
Для скачивания .torrent файлов необходима регистрация
Сайт не распространяет и не хранит электронные версии произведений, а лишь предоставляет доступ к создаваемому пользователями каталогу ссылок на торрент-файлы, которые содержат только списки хеш-сумм
[Профиль]  [ЛС] 

boypenza

Стаж: 9 лет 8 месяцев

Сообщений: 6


boypenza · 10-Июл-14 20:59 (спустя 2 часа 52 мин.)

[Цитировать] 

Огромное спасибо за раздачу! Вот только в названии темы стоит указать залитые эпизоды, а то я уж думал, что тут весь сезон, а оказалось только первые 4 эпизода.
[Профиль]  [ЛС] 

БэстЛайв

Стаж: 8 лет 1 месяц

Сообщений: 470

БэстЛайв · 10-Июл-14 21:08 (спустя 8 мин.)

[Цитировать] 

boypenza писал(а):
64511873Огромное спасибо за раздачу! Вот только в названии темы стоит указать залитые эпизоды, а то я уж думал, что тут весь сезон, а оказалось только первые 4 эпизода.
Не за что
Так в 7-ом сезоне всего 4-е серии. В этой раздаче 7 и 8 сезон.
[Профиль]  [ЛС] 

boypenza

Стаж: 9 лет 8 месяцев

Сообщений: 6


boypenza · 10-Июл-14 21:20 (спустя 12 мин.)

[Цитировать] 

БэстЛайв писал(а):
Не за что
Так в 7-ом сезоне всего 4-е серии. В этой раздаче 7 и 8 сезон.
Понял, виноват))
[Профиль]  [ЛС] 

Ox72

Стаж: 5 лет 8 месяцев

Сообщений: 42


Ox72 · 22-Июл-14 22:07 (спустя 12 дней, ред. 22-Июл-14 22:07)

[Цитировать] 

Спасибище огромное за раздачу!!!
Наконец-то с переводом!
А 8 сезон обещаете? А то мы это лихо поглотим, еще захотим
[Профиль]  [ЛС] 

БэстЛайв

Стаж: 8 лет 1 месяц

Сообщений: 470

БэстЛайв · 23-Июл-14 12:29 (спустя 14 часов, ред. 23-Июл-14 18:44)

[Цитировать] 

Ox72 писал(а):
64625345Спасибище огромное за раздачу!!!
Наконец-то с переводом!
А 8 сезон обещаете? А то мы это лихо поглотим, еще захотим
Не за что.
Насчет 8-го. Если покажут то постараюсь выложить, пока остается только ждать.
UPD завтра кажется стартует показ. Судя по всему 2-я серия 8-го сезона будет показана. Крутой тюнинг-2013: Impala 2014 года
[Профиль]  [ЛС] 

zoro

Стаж: 11 лет 4 месяца

Сообщений: 349

zoro · 10-Авг-14 21:20 (спустя 18 дней)

[Цитировать] 

• Season 7
92 7-01 01/Oct/13 Sarah's Skylark
93 7-02 08/Oct/13 Bill's 1965 Mustang Fastback
94 7-03 15/Oct/13 Scott's 1967 Chevy Pickup Truck
95 7-04 22/Oct/13 Victor's 1967 Ford Bronco
96 7-05 UNAIRED TBA
97 7-06 UNAIRED TBA
• Season 8
98 8-01 23/Mar/14 Efrain's Olds 442
99 8-02 30/Mar/14 Ricky's New Impala
100 8-03 06/Apr/14 Lanny's 67 Ford Fairlane GTA
101 8-04 13/Apr/14 Roger's '61 Impala Bubble Top
102 8-05 20/Apr/14 Josh's '63 Nova
[Профиль]  [ЛС] 

БэстЛайв

Стаж: 8 лет 1 месяц

Сообщений: 470

БэстЛайв · 11-Авг-14 17:04 (спустя 19 часов)

[Цитировать] 

zoro писал(а):
64796318• Season 8
98 8-01 23/Mar/14 Efrain's Olds 442
99 8-02 30/Mar/14 Ricky's New Impala
100 8-03 06/Apr/14 Lanny's 67 Ford Fairlane GTA

101 8-04 13/Apr/14 Roger's '61 Impala Bubble Top
102 8-05 20/Apr/14 Josh's '63 Nova
Уже записаны.
[Профиль]  [ЛС] 

БэстЛайв

Стаж: 8 лет 1 месяц

Сообщений: 470

БэстЛайв · 05-Апр-15 09:02 (спустя 7 месяцев)

[Цитировать] 

Раздача обновлена 05.04.2015. Добавлены 5 недостающих эпизодов с S07E05 по S07E09. Перекачайте торрент файл
[Профиль]  [ЛС] 

Легнум

Стаж: 8 лет 6 месяцев

Сообщений: 18


Легнум · 09-Апр-15 21:24 (спустя 4 дня)

[Цитировать] 

БэстЛайв
Ты как всегда на высоте! Спасибо!
[Профиль]  [ЛС] 

radok66

Стаж: 9 лет 1 месяц

Сообщений: 8

radok66 · 08-Ноя-15 13:14 (спустя 6 месяцев)

[Цитировать] 

А у меня всё замерло на 90,3%. Дайте, докачать, пожалуйста.
[Профиль]  [ЛС] 

Bud^

Стаж: 3 года 10 месяцев

Сообщений: 33


Bud^ · 20-Авг-16 20:15 (спустя 9 месяцев)

[Цитировать] 

БэстЛайв
Здравствуйте(БэстЛайв) а у вас есть возможность выложить серии передачи ''Уличные гонки(Street Outlaws)'' которые вещают по DiscoveryChannel, в хорошем качестве.(1080)?.. уж больно увлекательная..) их не так много (желательно бы начиная со 2-ого сезона..) за отклик был бы премного благодарен!!! ))
[Профиль]  [ЛС] 
 
Ответить
Loading...
Error