(Mainstream Jazz) [CD] Lori Mechem - April In Paris :: The Lori Mechem Quartet Plays More Count Basie - 2009, FLAC (image+.cue), lossless

Страницы:  1

Ответить
Автор
Сообщение

papa1954

Top Seed 09* 10240r

Стаж: 12 лет 4 месяца

Сообщений: 16944

papa1954 · 22-Июн-14 01:04 (5 лет назад)

Lori Mechem - April In Paris
The Lori Mechem Quartet Plays More Count Basie
Жанр: Mainstream Jazz
Носитель: CD
Год издания: 2009
Издатель (лейбл): Cognito Music
Номер по каталогу: 7-89577-58942-1
Аудиокодек: FLAC (*.flac)
Тип рипа: image+.cue
Битрейт аудио: lossless
Продолжительность: 54:55
Rip by sashaz51
Наличие сканов в содержимом раздачи: нет
Треклист:
01. Corner Pocket (5:19)
02. Count 'Em (5:03)
03. From Russia With Love (4:15)
04. To You (3:58)
05. Muttnik (5:27)
06. Vine Street Rumble (3:15)
07. April In Paris (3:18)
08. Blue And Sentimental (4:42)
09. All Of Me (3:56)
10. Quince (4:58)
11. For Lena And Lennie (4:10)
12. I Can't Stop Loving You (4:05)
13. Jumpin' At The Woodside (2:29)
Personnel:
Lori Mechem - p
Andre Reiss - g
Roger Spencer - b
Chris Brown - d
Pete Christlieb - sax (3, 6, 8, 13)
 
Лог создания рипа
Exact Audio Copy V1.0 beta 3 from 29. August 2011
Отчёт EAC об извлечении, выполненном 21. июня 2014, 21:25
The Lori Mechem Quartet / April in Paris
Дисковод: _NEC DVD_RW ND-3540A Adapter: 0 ID: 0
Режим чтения : Достоверность
Использование точного потока : Да
Отключение кэша аудио : Да
Использование указателей C2 : Нет
Коррекция смещения при чтении : 48
Способность читать области Lead-in и Lead-out : Нет
Заполнение пропущенных сэмплов тишиной : Да
Удаление блоков с тишиной в начале и конце : Нет
При вычислениях CRC использовались нулевые сэмплы : Да
Интерфейс : Встроенный Win32-интерфейс для Win NT/2000
Выходной формат : Пользовательский кодировщик
Выбранный битрейт : 512 kBit/s
Качество : Высокий
Добавление ID3-тега : Нет
Утилита сжатия : G:\Program Files\Exact Audio Copy\Flac\flac.exe
Дополнительные параметры : -V -8 -T "Date=%year%" -T "Genre=%genre%" %source%
TOC извлечённого CD
Трек | Старт | Длительность | Начальный сектор | Конечный сектор
---------------------------------------------------------------------
1 | 0:00.00 | 5:18.47 | 0 | 23896
2 | 5:18.47 | 5:03.11 | 23897 | 46632
3 | 10:21.58 | 4:14.45 | 46633 | 65727
4 | 14:36.28 | 3:57.39 | 65728 | 83541
5 | 18:33.67 | 5:26.69 | 83542 | 108060
6 | 24:00.61 | 3:15.36 | 108061 | 122721
7 | 27:16.22 | 3:18.22 | 122722 | 137593
8 | 30:34.44 | 4:42.09 | 137594 | 158752
9 | 35:16.53 | 3:56.33 | 158753 | 176485
10 | 39:13.11 | 4:57.55 | 176486 | 198815
11 | 44:10.66 | 4:09.55 | 198816 | 217545
12 | 48:20.46 | 4:05.17 | 217546 | 235937
13 | 52:25.63 | 2:29.27 | 235938 | 247139
Характеристики диапазона извлечения и сообщения об ошибках
Выбранный диапазон
Имя файла Z:\Download\Music\MyOwn\Lori Mechem - 2009 - April in Paris\The Lori Mechem Quartet - April in Paris.wav
Пиковый уровень 99.8 %
Скорость извлечения 7.2 X
Качество диапазона 100.0 %
CRC теста 62AE7341
CRC копии 62AE7341
Копирование... OK
Ошибок не произошло
AccurateRip: сводка
Трек 1 отсутствует в базе данных
Трек 2 отсутствует в базе данных
Трек 3 отсутствует в базе данных
Трек 4 отсутствует в базе данных
Трек 5 отсутствует в базе данных
Трек 6 отсутствует в базе данных
Трек 7 отсутствует в базе данных
Трек 8 отсутствует в базе данных
Трек 9 отсутствует в базе данных
Трек 10 отсутствует в базе данных
Трек 11 отсутствует в базе данных
Трек 12 отсутствует в базе данных
Трек 13 отсутствует в базе данных
Ни одного трека нет в базе AccurateRip
Конец отчёта
==== Контрольная сумма отчёта 90D53D3D8E0B03F91474365A1DA4A832B6C601D35401F4E76B4E0467048C4704 ====
Содержание индексной карты (.CUE)
REM GENRE Jazz
REM DATE 2009
REM DISCID A60CDF0D
REM COMMENT "ExactAudioCopy v1.0b3"
PERFORMER "The Lori Mechem Quartet"
TITLE "April In Paris"
FILE "The Lori Mechem Quartet - April In Paris.flac" WAVE
TRACK 01 AUDIO
TITLE "Corner Pocket"
PERFORMER "The Lori Mechem Quartet"
INDEX 01 00:00:00
TRACK 02 AUDIO
TITLE "Count 'Em"
PERFORMER "The Lori Mechem Quartet"
INDEX 00 05:15:61
INDEX 01 05:18:47
TRACK 03 AUDIO
TITLE "From Russia With Love"
PERFORMER "The Lori Mechem Quartet"
INDEX 00 10:18:62
INDEX 01 10:21:58
TRACK 04 AUDIO
TITLE "To You"
PERFORMER "The Lori Mechem Quartet"
INDEX 00 14:33:26
INDEX 01 14:36:28
TRACK 05 AUDIO
TITLE "Muttnik"
PERFORMER "The Lori Mechem Quartet"
INDEX 00 18:30:68
INDEX 01 18:33:67
TRACK 06 AUDIO
TITLE "Vine Street Rumble"
PERFORMER "The Lori Mechem Quartet"
INDEX 00 23:57:64
INDEX 01 24:00:61
TRACK 07 AUDIO
TITLE "April In Paris"
PERFORMER "The Lori Mechem Quartet"
INDEX 00 27:13:23
INDEX 01 27:16:22
TRACK 08 AUDIO
TITLE "Blue And Sentimental"
PERFORMER "The Lori Mechem Quartet"
INDEX 00 30:31:45
INDEX 01 30:34:44
TRACK 09 AUDIO
TITLE "All Of Me"
PERFORMER "The Lori Mechem Quartet"
INDEX 00 35:13:54
INDEX 01 35:16:53
TRACK 10 AUDIO
TITLE "Quince"
PERFORMER "The Lori Mechem Quartet"
INDEX 00 39:10:12
INDEX 01 39:13:11
TRACK 11 AUDIO
TITLE "For Lena And Lennie"
PERFORMER "The Lori Mechem Quartet"
INDEX 00 44:07:67
INDEX 01 44:10:66
TRACK 12 AUDIO
TITLE "I Can't Stop Loving You"
PERFORMER "The Lori Mechem Quartet"
INDEX 00 48:17:48
INDEX 01 48:20:46
TRACK 13 AUDIO
TITLE "Jumpin' At The Woodside"
PERFORMER "The Lori Mechem Quartet"
INDEX 00 52:22:64
INDEX 01 52:25:63
Download
Для скачивания .torrent файлов необходима регистрация
Сайт не распространяет и не хранит электронные версии произведений, а лишь предоставляет доступ к создаваемому пользователями каталогу ссылок на торрент-файлы, которые содержат только списки хеш-сумм
[Профиль]  [ЛС] 

Kena73

Стаж: 11 лет 3 месяца

Сообщений: 140


Kena73 · 23-Июн-19 18:40 (спустя 5 лет)

просьба раздать
[Профиль]  [ЛС] 
 
Ответить
Loading...
Error