Дневник будущего / Mirai Nikki / The Future Diary [TV] [26 из 26] [Без хардсаба] [RUS(ext), JAP+SUB] [2011, триллер, мистика, драма, BDRip]

Страницы:  1

Ответить
Автор
Сообщение

wealldiedudes

Стаж: 4 года 8 месяцев

Сообщений: 27

wealldiedudes · 26-Май-14 20:06 (4 года 3 месяца назад, ред. 01-Май-15 16:57)

Дневник будущего / Mirai Nikki / The Future Diary
Год выпуска: 2011 г. (c 09.10.2011 по 15.04.2012)
Страна: Япония
Жанр: триллер, мистика, драма
Тип: TV
Продолжительность: 26 эп., ~25 мин. серия
Режиссер: Хосода Наото
Студия: asread
Описание: 14-летний Юкитэру Амано жил одиночкой, без особого родительского внимания, никого не трогая и считая себя лишь наблюдателем окружающего мира. А что за наблюдатель без путевого журнала или хотя бы дневника? Вот Юкки и вел его регулярно на мобильном телефоне, заслужив в школе репутацию безобидного дурачка. Но мнение окружающих героя не волновало, ибо по душам он общался лишь с воображаемым другом Дэусом, по профессии – богом нашей Вселенной. Бог любил простого японского парня и часто делился с ним мудрыми мыслями. Да только зря Амано однажды ляпнул, что ему скучно!
Ищите и обрящете! В итоге телефон бедного школьника обрел способность предсказывать события и превратился в «дневник будущего», а сам главный герой стал участником «королевской битвы». По замыслу Дэуса двенадцать обладателей «дневников» должны за 90 дней познакомиться и уничтожить друг друга, чтобы остался только один – он и сменит бога на посту, став новым Создателем. Конечно, проще счесть подобное больной фантазией – но тип, что пришел убивать Амано, думал по-другому. Парень спасся лишь с помощью симпатичной одноклассницы Юно – как выяснилось, тоже участницы Игры! Давай, Юкки, на Дэуса надейся, а сам не плошай!
© Hollow, World Art
Качество: BDRip (Рип с BDRemux-а)
Автор рипа: Unknown
Тип релиза: Без хардсаба
Формат видео: MKV
Чаптеры: Есть
Видео: x264, 854x480, (16/9), ~934 кбит/с, 23.976 fps, 8 bit
Аудио: Vorbis, 192 кбит/с, 44.1 кГц, stereo Язык Японский
Аудио 1-6: AC3, 192 кбит/с, 48 кГц, stereo Язык Русский (внешними файлами)
Озвучки:
  1. двухголосая от MifSnaiper & KroshkaRu
  2. двухголосая от Eladiel & Jam
  3. двухголосая от maxzer & Persona99 (эпизоды 1-4)
  4. двухголосая от Flame & comina
  5. одноголосая от metalrus
  6. двухголосая от OSLIKt & NikaLenina
Субтитры: ASS, внешние Язык субтитров русский
  1. Переводчик: kuro | Редактор: antiBILLotic | Оформление: ximik | Перевод песен: hollow

Подробные тех. данные
General
Unique ID : 34890937073911492396137115013952387391 (0x1A3FC0034423405662B7F9D61531393F)
Complete name : D:\uploads\Mirai Nikki [480p]\[Unknown] Mirai Nikki 01 [BDrip 854x480 x264 Vorbis].mkv
Format : Matroska
Format version : Version 4 / Version 2
File size : 208 MiB
Duration : 25mn 20s
Overall bit rate mode : Variable
Overall bit rate : 1 149 Kbps
Writing application : Lavf55.40.100
Writing library : Lavf55.40.100
Video
ID : 1
Format : AVC
Format/Info : Advanced Video Codec
Format profile : [email protected]
Format settings, CABAC : Yes
Format settings, ReFrames : 9 frames
Codec ID : V_MPEG4/ISO/AVC
Duration : 25mn 20s
Bit rate : 934 Kbps
Width : 854 pixels
Height : 480 pixels
Display aspect ratio : 16:9
Frame rate mode : Constant
Frame rate : 23.976 fps
Color space : YUV
Chroma subsampling : 4:2:0
Bit depth : 8 bits
Scan type : Progressive
Bits/(Pixel*Frame) : 0.095
Stream size : 169 MiB (81%)
Writing library : x264 core 142 r2431 ac76440
Encoding settings : cabac=1 / ref=9 / deblock=1:-1:-1 / analyse=0x3:0x133 / me=umh / subme=9 / psy=1 / psy_rd=0.40:0.00 / mixed_ref=1 / me_range=24 / chroma_me=1 / trellis=1 / 8x8dct=1 / cqm=0 / deadzone=21,11 / fast_pskip=1 / chroma_qp_offset=-2 / threads=12 / lookahead_threads=3 / sliced_threads=0 / nr=0 / decimate=1 / interlaced=0 / bluray_compat=0 / constrained_intra=0 / bframes=12 / b_pyramid=2 / b_adapt=2 / b_bias=0 / direct=3 / weightb=1 / open_gop=0 / weightp=2 / keyint=250 / keyint_min=23 / scenecut=40 / intra_refresh=0 / rc_lookahead=60 / rc=crf / mbtree=1 / crf=15.5 / qcomp=0.60 / qpmin=0 / qpmax=69 / qpstep=4 / ip_ratio=1.40 / aq=1:0.60
Default : No
Forced : No
Audio
ID : 2
Format : Vorbis
Format settings, Floor : 1
Codec ID : A_VORBIS
Duration : 25mn 20s
Bit rate mode : Variable
Bit rate : 192 Kbps
Channel(s) : 2 channels
Sampling rate : 48.0 KHz
Compression mode : Lossy
Delay relative to video : 1mn 5s
Stream size : 34.8 MiB (17%)
Writing library : libVorbis (Turpakäräjiin) (20140122 (Turpakäräjiin))
Default : Yes
Forced : No
Writing application : Lavc55.63.100
Menu
00:00:00.000 : :00:00:00.000
00:00:44.044 : :00:00:44.044
00:02:14.009 : :00:02:14.009
00:11:01.995 : :00:11:01.995
00:22:09.328 : :00:22:09.328
00:23:47.051 : :00:23:47.051
00:25:11.009 : :00:25:11.009
00:25:20.018 : :00:25:20.018
Список эпизодов
01. Sign Up
02. Contract Conditions
03. Early Predicament
04. Handwritten Input
05. Voice Memo
06. Manners Mode
07. Dial Tone
08. New Model
09. Blocked Number
10. Family Plan
11. Termination of Service
12. Reception Outside Range
13. Restricted Call
14. Deleted Memory
15. Double Holder
16. Repairing
17. Family Discount
18. Crossed Lines
19. Delete all Messages
20. Data transfer
21. PIN
22. Disconnection
23. Breach of contract
24. Data Retrieval
25. Reset
26. Initialization
Скриншоты
Download
Для скачивания .torrent файлов необходима регистрация
Сайт не распространяет и не хранит электронные версии произведений, а лишь предоставляет доступ к создаваемому пользователями каталогу ссылок на торрент-файлы, которые содержат только списки хеш-сумм
[Профиль]  [ЛС] 

Werewolf_TM

Стаж: 9 лет 10 месяцев

Сообщений: 1


Werewolf_TM · 27-Май-14 00:39 (спустя 4 часа)

[Цитировать] 


проверено
Aglenn

заманчивое описание нужно посмотреть))
[Профиль]  [ЛС] 

wealldiedudes

Стаж: 4 года 8 месяцев

Сообщений: 27

wealldiedudes · 08-Июн-14 03:59 (спустя 12 дней)

[Цитировать] 

Bektor писал(а):
64188753Werewolf_TM
Почитай мангу )
Лучше сначала посмотри, а потом почитай.
[Профиль]  [ЛС] 

RocknRollа

Стаж: 6 лет 3 месяца

Сообщений: 506

RocknRollа · 17-Сен-14 18:12 (спустя 3 месяца 9 дней)

[Цитировать] 

сабы просто ужасные...
[Профиль]  [ЛС] 

Odd Eye

Стаж: 8 лет 5 месяцев

Сообщений: 95

Odd Eye · 14-Мар-16 01:01 (спустя 1 год 5 месяцев)

[Цитировать] 

Как бороться с зеленой вертикальной полосой в правой части экрана?
[Профиль]  [ЛС] 

ilyuXer

Стаж: 6 лет 1 месяц

Сообщений: 2


ilyuXer · 28-Май-16 13:12 (спустя 2 месяца 14 дней)

[Цитировать] 

Клон Fate/Stay night. Неплохой
[Профиль]  [ЛС] 

RocknRollа

Стаж: 6 лет 3 месяца

Сообщений: 506

RocknRollа · 16-Июн-16 16:43 (спустя 19 дней)

[Цитировать] 

ilyuXer писал(а):
70777927Клон Fate/Stay night. Неплохой
Так и не понял к чему)
[Профиль]  [ЛС] 

deinstalation

Стаж: 5 лет 9 месяцев

Сообщений: 95


deinstalation · 24-Окт-16 09:48 (спустя 4 месяца 7 дней)

[Цитировать] 

тут конечности, отваливающиеся от тела, затемняются?
[Профиль]  [ЛС] 
 
Ответить
Loading...
Error