(Cool, Vocal Jazz) [CD] Chet Baker - Chet Baker & Strings - 1953 (1998), FLAC (tracks+.cue), lossless

Страницы:  1

Ответить
Автор
Сообщение

fiks22

Top Seed 08* 5120r

Стаж: 11 лет 9 месяцев

Сообщений: 11016

fiks22 · 12-Фев-14 02:31 (5 лет 5 месяцев назад, ред. 12-Фев-14 02:40)

Chet Baker - Chet Baker & Strings
Жанр: Cool, Vocal Jazz
Носитель: CD
Страна-производитель диска: США
Год издания: 1998
Издатель (лейбл): Columbia/Legacy
Номер по каталогу: 65562 2
Аудиокодек: FLAC (*.flac)
Тип рипа: tracks+.cue
Битрейт аудио: lossless
Продолжительность: 46:14
Источник (релизер): smacito (what)
Наличие сканов в содержимом раздачи: да
Треклист:
01. You Don't Know What Love Is (Raye-DePaul) - 3:31
02. I'm Thru with Love (Kahn-Malneck-Livingston) - 2:40
03. Love Walked In (Gershwin-Gershwin) - 2:59
04. You'd Better Go Now (Graham-Reichner) - 3:07
05. I Married an Angel (Hart-Rodgers) - 3:37
06. Love (Martin-Blane) - 2:34
07. I Love You (Porter) - 2:48
08. What a Diff'rence a Day Made (Grever-Adams) - 2:41
09. Why Shouldn't I? (Porter) - 3:36
10. A Little Duet for Zoot and Chet (Montrose) - 2:37
11. The Wind (Freeman) - 4:02
12. Trickleydidlier (Rogers) - 2:41
13. You Don't Know What Love Is (alternate take) (Raye-DePaul) - 3:31
14. You'd Better Go Now (alternate take) (Graham-Reichner) - 3:10
15. A Little Duet for Zoot and Chet (alternate take) (Montrose) - 2:40
Состав:
Chet Baker - trumpet
Zoot Sims, Jack Montrose - tenor saxophone
Bud Shank - alto saxophone
Russ Freeman - piano
Joe Mondragon - bass
Shelly Manne - drums
Sam Cytron, Jack Gasselin, George Kast, Eudice Shapiro, Paul Shure, Felix Slatkin - violins
Lou Kievman, Paul Robyn - viola
Victor Gottlieb - cello
Recorded in Los Angeles, CA on December 30-31, 1953 and February 20, 1954.
Лог создания рипа
Exact Audio Copy V1.0 beta 3 from 29. August 2011
EAC extraction logfile from 15. December 2013, 13:50
Chet Baker / Chet Baker & Strings
Used drive : MATSHITADVD-RAM UJ8C2 S Adapter: 0 ID: 0
Read mode : Secure
Utilize accurate stream : Yes
Defeat audio cache : Yes
Make use of C2 pointers : No
Read offset correction : 103
Overread into Lead-In and Lead-Out : No
Fill up missing offset samples with silence : Yes
Delete leading and trailing silent blocks : No
Null samples used in CRC calculations : Yes
Used interface : Native Win32 interface for Win NT & 2000
Gap handling : Appended to previous track
Used output format : User Defined Encoder
Selected bitrate : 1024 kBit/s
Quality : High
Add ID3 tag : No
Command line compressor : C:\Program Files (x86)\Exact Audio Copy\Flac\flac.exe
Additional command line options : -8 -V -T "ARTIST=%artist%" -T "TITLE=%title%" -T "ALBUM=%albumtitle%" -T "DATE=%year%" -T "TRACKNUMBER=%tracknr%" -T "GENRE=%genre%" -T "PERFORMER=%albuminterpret%" -T "COMPOSER=%composer%" %haslyrics%--tag-from-file=LYRICS="%lyricsfile%"%haslyrics% -T "ALBUMARTIST=%albumartist%" -T "DISCNUMBER=%cdnumber%" -T "TOTALDISCS=%totalcds%" -T "TOTALTRACKS=%numtracks%" -T "COMMENT=%comment%" %source% -o %dest%
TOC of the extracted CD
Track | Start | Length | Start sector | End sector
---------------------------------------------------------
1 | 0:00.00 | 3:30.52 | 0 | 15801
2 | 3:30.52 | 2:39.40 | 15802 | 27766
3 | 6:10.17 | 2:59.10 | 27767 | 41201
4 | 9:09.27 | 3:06.63 | 41202 | 55214
5 | 12:16.15 | 3:37.17 | 55215 | 71506
6 | 15:53.32 | 2:34.08 | 71507 | 83064
7 | 18:27.40 | 2:48.35 | 83065 | 95699
8 | 21:16.00 | 2:40.62 | 95700 | 107761
9 | 23:56.62 | 3:35.58 | 107762 | 123944
10 | 27:32.45 | 2:37.10 | 123945 | 135729
11 | 30:09.55 | 4:02.37 | 135730 | 153916
12 | 34:12.17 | 2:40.70 | 153917 | 165986
13 | 36:53.12 | 3:30.40 | 165987 | 181776
14 | 40:23.52 | 3:09.48 | 181777 | 195999
15 | 43:33.25 | 2:39.45 | 196000 | 207969
Track 1
Filename D:\My Documents\Dropbox\My Music\What.cd project\Chet Baker - 1953 - Chet Baker & Strings [FLAC]\01 You Don't Know What Love Is.wav
Pre-gap length 0:00:02.00
Peak level 100.0 %
Extraction speed 2.4 X
Track quality 100.0 %
Test CRC A2C5851B
Copy CRC A2C5851B
Accurately ripped (confidence 5) [39515CE1] (AR v2)
Copy OK
Track 2
Filename D:\My Documents\Dropbox\My Music\What.cd project\Chet Baker - 1953 - Chet Baker & Strings [FLAC]\02 I'm Thru With Love.wav
Pre-gap length 0:00:02.69
Peak level 94.3 %
Extraction speed 2.5 X
Track quality 100.0 %
Test CRC 2FE636B3
Copy CRC 2FE636B3
Accurately ripped (confidence 5) [6518D614] (AR v2)
Copy OK
Track 3
Filename D:\My Documents\Dropbox\My Music\What.cd project\Chet Baker - 1953 - Chet Baker & Strings [FLAC]\03 Love Walked In.wav
Pre-gap length 0:00:02.73
Peak level 100.0 %
Extraction speed 2.7 X
Track quality 100.0 %
Test CRC 6D39FBD9
Copy CRC 6D39FBD9
Accurately ripped (confidence 5) [EE876BBF] (AR v2)
Copy OK
Track 4
Filename D:\My Documents\Dropbox\My Music\What.cd project\Chet Baker - 1953 - Chet Baker & Strings [FLAC]\04 You'd Better Go Now.wav
Pre-gap length 0:00:02.73
Peak level 91.5 %
Extraction speed 2.9 X
Track quality 100.0 %
Test CRC C4409699
Copy CRC C4409699
Accurately ripped (confidence 5) [0DC04A4F] (AR v2)
Copy OK
Track 5
Filename D:\My Documents\Dropbox\My Music\What.cd project\Chet Baker - 1953 - Chet Baker & Strings [FLAC]\05 I Married An Angel.wav
Pre-gap length 0:00:02.73
Peak level 92.9 %
Extraction speed 3.1 X
Track quality 100.0 %
Test CRC 8BD2C05D
Copy CRC 8BD2C05D
Accurately ripped (confidence 5) [9B86594E] (AR v2)
Copy OK
Track 6
Filename D:\My Documents\Dropbox\My Music\What.cd project\Chet Baker - 1953 - Chet Baker & Strings [FLAC]\06 Love.wav
Pre-gap length 0:00:01.73
Peak level 100.0 %
Extraction speed 3.1 X
Track quality 100.0 %
Test CRC 4EAF9AB9
Copy CRC 4EAF9AB9
Accurately ripped (confidence 5) [B4D3EF48] (AR v2)
Copy OK
Track 7
Filename D:\My Documents\Dropbox\My Music\What.cd project\Chet Baker - 1953 - Chet Baker & Strings [FLAC]\07 I Love You.wav
Pre-gap length 0:00:01.04
Peak level 100.0 %
Extraction speed 3.3 X
Track quality 100.0 %
Test CRC 763DDDA1
Copy CRC 763DDDA1
Accurately ripped (confidence 5) [33B14B63] (AR v2)
Copy OK
Track 8
Filename D:\My Documents\Dropbox\My Music\What.cd project\Chet Baker - 1953 - Chet Baker & Strings [FLAC]\08 What A Diff'rence A Day Made.wav
Pre-gap length 0:00:01.77
Peak level 94.3 %
Extraction speed 3.3 X
Track quality 100.0 %
Test CRC 336B4758
Copy CRC 336B4758
Accurately ripped (confidence 5) [084FC52A] (AR v2)
Copy OK
Track 9
Filename D:\My Documents\Dropbox\My Music\What.cd project\Chet Baker - 1953 - Chet Baker & Strings [FLAC]\09 Why Shouldn't I.wav
Pre-gap length 0:00:01.76
Peak level 97.2 %
Extraction speed 2.6 X
Track quality 99.9 %
Test CRC 71340128
Copy CRC 71340128
Accurately ripped (confidence 5) [58C870E7] (AR v2)
Copy OK
Track 10
Filename D:\My Documents\Dropbox\My Music\What.cd project\Chet Baker - 1953 - Chet Baker & Strings [FLAC]\10 A Little Duet For Zoot and Chet.wav
Pre-gap length 0:00:01.77
Peak level 100.0 %
Extraction speed 3.6 X
Track quality 100.0 %
Test CRC AA3D100F
Copy CRC AA3D100F
Accurately ripped (confidence 5) [D056B659] (AR v2)
Copy OK
Track 11
Filename D:\My Documents\Dropbox\My Music\What.cd project\Chet Baker - 1953 - Chet Baker & Strings [FLAC]\11 The Wind.wav
Pre-gap length 0:00:01.40
Peak level 100.0 %
Extraction speed 4.0 X
Track quality 100.0 %
Test CRC B7DF79C2
Copy CRC B7DF79C2
Accurately ripped (confidence 5) [1F8BD160] (AR v2)
Copy OK
Track 12
Filename D:\My Documents\Dropbox\My Music\What.cd project\Chet Baker - 1953 - Chet Baker & Strings [FLAC]\12 Trickleydidlier.wav
Pre-gap length 0:00:02.73
Peak level 100.0 %
Extraction speed 3.8 X
Track quality 100.0 %
Test CRC A34548C4
Copy CRC A34548C4
Accurately ripped (confidence 5) [E0FE5750] (AR v2)
Copy OK
Track 13
Filename D:\My Documents\Dropbox\My Music\What.cd project\Chet Baker - 1953 - Chet Baker & Strings [FLAC]\13 You Don't Know What Love Is (Alternate Take).wav
Pre-gap length 0:00:01.09
Peak level 100.0 %
Extraction speed 4.2 X
Track quality 100.0 %
Test CRC 0778E58C
Copy CRC 0778E58C
Accurately ripped (confidence 5) [66AB9825] (AR v2)
Copy OK
Track 14
Filename D:\My Documents\Dropbox\My Music\What.cd project\Chet Baker - 1953 - Chet Baker & Strings [FLAC]\14 You'd Better Go Now (Alternate Take).wav
Pre-gap length 0:00:02.76
Peak level 100.0 %
Extraction speed 4.2 X
Track quality 100.0 %
Test CRC E07E675D
Copy CRC E07E675D
Accurately ripped (confidence 5) [5EEFC88F] (AR v2)
Copy OK
Track 15
Filename D:\My Documents\Dropbox\My Music\What.cd project\Chet Baker - 1953 - Chet Baker & Strings [FLAC]\15 A Little Duet For Zoot and Chet (Alternate Take).wav
Pre-gap length 0:00:00.86
Peak level 100.0 %
Extraction speed 4.3 X
Track quality 100.0 %
Test CRC D271C5DF
Copy CRC D271C5DF
Accurately ripped (confidence 5) [94ADB002] (AR v2)
Copy OK
All tracks accurately ripped
No errors occurred
End of status report
---- CUETools DB Plugin V2.1.3
[CTDB TOCID: _2G6b4KQowuSTvvXCK9ffFqaDGY-] found, Submit result: _2G6b4KQowuSTvvXCK9ffFqaDGY- has been confirmed
[82aaa4c0] (7/7) Accurately ripped
==== Log checksum E4D61F75C5947BABA330747DF3112B00D60AAC7657A7FE5A26E5BBA909F30A2C ====
Содержание индексной карты (.CUE)
REM GENRE Jazz
REM DATE 1954
REM DISCID BB0AD40F
REM COMMENT "ExactAudioCopy v1.0b3"
PERFORMER "Chet Baker"
TITLE "Chet Baker & Strings"
FILE "01 - You Don't Know What Love Is.wav" WAVE
TRACK 01 AUDIO
TITLE "You Don't Know What Love Is"
PERFORMER "Chet Baker"
INDEX 01 00:00:00
TRACK 02 AUDIO
TITLE "I'm Thru with Love"
PERFORMER "Chet Baker"
INDEX 00 03:28:00
FILE "02 - I'm Thru with Love.wav" WAVE
INDEX 01 00:00:00
TRACK 03 AUDIO
TITLE "Love Walked In"
PERFORMER "Chet Baker"
INDEX 00 02:36:60
FILE "03 - Love Walked In.wav" WAVE
INDEX 01 00:00:00
TRACK 04 AUDIO
TITLE "You'd Better Go Now"
PERFORMER "Chet Baker"
INDEX 00 02:56:30
FILE "04 - You'd Better Go Now.wav" WAVE
INDEX 01 00:00:00
TRACK 05 AUDIO
TITLE "I Married an Angel"
PERFORMER "Chet Baker"
INDEX 00 03:04:08
FILE "05 - I Married an Angel.wav" WAVE
INDEX 01 00:00:00
TRACK 06 AUDIO
TITLE "Love"
PERFORMER "Chet Baker"
INDEX 00 03:35:37
FILE "06 - Love.wav" WAVE
INDEX 01 00:00:00
TRACK 07 AUDIO
TITLE "I Love You"
PERFORMER "Chet Baker"
INDEX 00 02:33:05
FILE "07 - I Love You.wav" WAVE
INDEX 01 00:00:00
TRACK 08 AUDIO
TITLE "What a Diff'rence a Day Made"
PERFORMER "Chet Baker"
INDEX 00 02:46:52
FILE "08 - What a Diff'rence a Day Made.wav" WAVE
INDEX 01 00:00:00
TRACK 09 AUDIO
TITLE "Why Shouldn't I?"
PERFORMER "Chet Baker"
INDEX 00 02:39:05
FILE "09 - Why Shouldn't I.wav" WAVE
INDEX 01 00:00:00
TRACK 10 AUDIO
TITLE "A Little Duet for Zoot and Chet"
PERFORMER "Chet Baker"
INDEX 00 03:34:00
FILE "10 - A Little Duet for Zoot and Chet.wav" WAVE
INDEX 01 00:00:00
TRACK 11 AUDIO
TITLE "The Wind"
PERFORMER "Chet Baker"
INDEX 00 02:35:55
FILE "11 - The Wind.wav" WAVE
INDEX 01 00:00:00
TRACK 12 AUDIO
TITLE "Trickleydidlier"
PERFORMER "Chet Baker"
INDEX 00 03:59:57
FILE "12 - Trickleydidlier.wav" WAVE
INDEX 01 00:00:00
TRACK 13 AUDIO
TITLE "You Don't Know What Love Is (alternate take)"
PERFORMER "Chet Baker"
INDEX 00 02:39:63
FILE "13 - You Don't Know What Love Is (alternate take).wav" WAVE
INDEX 01 00:00:00
TRACK 14 AUDIO
TITLE "You'd Better Go Now (alternate take)"
PERFORMER "Chet Baker"
INDEX 00 03:27:58
FILE "14 - You'd Better Go Now (alternate take).wav" WAVE
INDEX 01 00:00:00
TRACK 15 AUDIO
TITLE "A Little Duet for Zoot and Chet (alternate take)"
PERFORMER "Chet Baker"
INDEX 00 03:08:58
FILE "15 - A Little Duet for Zoot and Chet (alternate take).wav" WAVE
INDEX 01 00:00:00
Отчет CUETools
[CUETools log; Date: 12.02.2014 3:26:58; Version: 2.1.4]
[CTDB TOCID: _2G6b4KQowuSTvvXCK9ffFqaDGY-] found.
Track | CTDB Status
1 | (12/12) Accurately ripped
2 | (12/12) Accurately ripped
3 | (12/12) Accurately ripped
4 | (12/12) Accurately ripped
5 | (12/12) Accurately ripped
6 | (12/12) Accurately ripped
7 | (12/12) Accurately ripped
8 | (12/12) Accurately ripped
9 | (12/12) Accurately ripped
10 | (12/12) Accurately ripped
11 | (12/12) Accurately ripped
12 | (12/12) Accurately ripped
13 | (12/12) Accurately ripped
14 | (12/12) Accurately ripped
15 | (12/12) Accurately ripped
[AccurateRip ID: 00196172-011fa681-bb0ad40f] found.
Track [ CRC | V2 ] Status
01 [80a220b5|39515ce1] (00+05/37) Accurately ripped
02 [fbc9cd83|6518d614] (00+05/37) Accurately ripped
03 [226b811c|ee876bbf] (00+05/37) Accurately ripped
04 [6f62ce2a|0dc04a4f] (00+05/37) Accurately ripped
05 [c7ca7b92|9b86594e] (00+05/37) Accurately ripped
06 [986fdb4b|b4d3ef48] (00+05/37) Accurately ripped
07 [00381448|33b14b63] (00+05/37) Accurately ripped
08 [4fa645c6|084fc52a] (00+05/37) Accurately ripped
09 [7b2665cf|58c870e7] (00+05/37) Accurately ripped
10 [76a8886a|d056b659] (00+05/37) Accurately ripped
11 [cc9e8ee6|1f8bd160] (00+05/37) Accurately ripped
12 [2acf33d2|e0fe5750] (00+05/37) Accurately ripped
13 [d87654e3|66ab9825] (00+05/37) Accurately ripped
14 [443c9878|5eefc88f] (00+05/37) Accurately ripped
15 [545435e8|94adb002] (00+05/37) Accurately ripped
Offsetted by -628:
01 [09239625] (11/37) Accurately ripped
02 [e8f2a91f] (11/37) Accurately ripped
03 [29509e3c] (11/37) Accurately ripped
04 [85b6f152] (11/37) Accurately ripped
05 [fdf55c9a] (11/37) Accurately ripped
06 [2d6a96ff] (11/37) Accurately ripped
07 [62e637d8] (11/37) Accurately ripped
08 [cf22aa4e] (11/37) Accurately ripped
09 [dab5f8d3] (11/37) Accurately ripped
10 [8a90c2d6] (11/37) Accurately ripped
11 [75e58ebe] (11/37) Accurately ripped
12 [128259d6] (11/37) Accurately ripped
13 [e0f84e1f] (11/37) Accurately ripped
14 [62043a9c] (11/37) Accurately ripped
15 [8004e685] (11/37) Accurately ripped
Offsetted by -106:
01 [841b71ad] (03/37) Accurately ripped
02 [ed31b7e1] (03/37) Accurately ripped
03 [8086c32c] (03/37) Accurately ripped
04 [aeabb51e] (03/37) Accurately ripped
05 [b94a61f6] (03/37) Accurately ripped
06 [d6456355] (03/37) Accurately ripped
07 [56fd6bd0] (03/37) Accurately ripped
08 [e45a3fea] (03/37) Accurately ripped
09 [a3bd0041] (03/37) Accurately ripped
10 [dcab0af0] (03/37) Accurately ripped
11 [a3e46d72] (03/37) Accurately ripped
12 [a4430bc4] (03/37) Accurately ripped
13 [3fcf1f91] (03/37) Accurately ripped
14 [5f46a5fa] (03/37) Accurately ripped
15 [c0cd99d4] (03/37) Accurately ripped
Track Peak [ CRC32 ] [W/O NULL] [ LOG ]
-- 100,0 [E5240A17] [9CD0FB21]
01 100,0 [A2C5851B] [65381268] CRC32
02 94,3 [2FE636B3] [1B9B5BA4] CRC32
03 100,0 [6D39FBD9] [058BB912] CRC32
04 91,5 [C4409699] [105BFA62] CRC32
05 92,9 [8BD2C05D] [F449F6B9] CRC32
06 100,0 [4EAF9AB9] [35FF7186] CRC32
07 100,0 [763DDDA1] [7C3C298B] CRC32
08 94,3 [336B4758] [4732A834] CRC32
09 97,2 [71340128] [930055C1] CRC32
10 100,0 [AA3D100F] [450FA0CA] CRC32
11 100,0 [B7DF79C2] [7C10687F] CRC32
12 100,0 [A34548C4] [DFD0902D] CRC32
13 100,0 [0778E58C] [1969D439] CRC32
14 100,0 [E07E675D] [3C16C313] CRC32
15 100,0 [D271C5DF] [5077A054] CRC32
Review by Lindsay Planer
This release offers a unique glimpse of a young Chet Baker in a quintet setting, complemented by a nine-piece string section. Utilizing the uniquely modern arrangements of Johnny Mandel, Marty Paich, Jack Montrose, and Shorty Rogers, this interaction of "West Coast cool" with primordial elevator music escapes many -- if not indeed all -- of the potential sonic pitfalls such a marriage might suggest. In the truest sense of the word augmentation, the string arrangements provide the desired opulence sans the heavy-handed or syrupy residual effects. Perhaps most inspiring about this outing is the success with which Baker and crew are able to thrive in this environment, providing subtle insight into the quintet's ability to simultaneously adapt and explore. Chet Baker and Strings was recorded over three days in late 1953 and early 1954. Joining Baker (trumpet) on these sessions are Jack "Zoot" Sims (tenor sax), Jack Montrose (tenor sax), Russ Freeman (piano), Joe Mondragon (bass), Shelly Manne (drums), and Clifford "Bud" Shank (alto sax), who steps in for Sims on the 1954 date. "Love Walked In" incorporates a trademark volley of interaction between Baker and Sims. "Love" contains what is arguably the most successful implementation of the string section, as well as some stellar soloing by Freeman. In fact, his contributions to this particular recording rank among his finest with Baker and company. The same enthusiasm can likewise be applied to "A Little Duet for Zoot and Chet." Not only are Sims and Baker in top flight, but the string arrangement swings irresistibly as well. The easygoing and otherwise winding strings support the cool bop like a kite in a March breeze -- light, airy, and conspicuous only in altitude.
Download
Для скачивания .torrent файлов необходима регистрация
Сайт не распространяет и не хранит электронные версии произведений, а лишь предоставляет доступ к создаваемому пользователями каталогу ссылок на торрент-файлы, которые содержат только списки хеш-сумм
[Профиль]  [ЛС] 
 
Ответить
Loading...
Error