Джон Кеннеди: День, который изменил всё / JFK: The Final Houers [2013, Документальный, HDTVRip 720p]

Страницы:  1

Ответить
Автор
Сообщение

dysonegear

Стаж: 8 лет 11 месяцев

Сообщений: 227

dysonegear · 21-Ноя-13 21:54 (4 года 11 месяцев назад, ред. 21-Ноя-13 23:57)

Джон Кеннеди: День, который изменил всё / JFK: The Final Houers
Год выпуска: 2013
Страна: США, National Geographic
Жанр: Документальный
Продолжительность: 01:27:00
Перевод: Профессиональный (одноголосый) студия АРК ТВ
Русские субтитры: нет
Описание:Хроника событий, последовавших после убийства президента Кеннеди 22 ноября 1963 года, которые изменили культурный облик мира. Все мы знаем, как закончилась эта история. В то утро шел дождь, но никто не обращал на него внимания. В самом деле, не каждый день увидишь президента Кеннеди. Никто и подумать не мог, что президент погибнет через несколько часов. В тот день, всё сыграло свою роль: погода, место, угол обзора, тот факт, что машина должна была свернуть на автостраду. Вряд ли охрана могла тогда, что-то сделать иначе. Джон Фицджеральд Кеннеди. День, который изменил всё.
Официальный сайт

Релиз
качество: HDTVRip
формат: MKV
Видео: AVC 3872 Кбит/с, 1280x720 , 29,970 fps
Аудио: Русский AC3, 2 ch, 192 Кбит/с
Аудио: Английский AC3, 6 ch, 384 Кбит/с
MediaInfo
General
Unique ID : 245581671967917524832048505922951733300 (0xB8C14F40DE6AB93D8ED4B306C48A6034)
Complete name : E:\kennedy\JFK.Джон Кеннеди День, который изменил всё HDTVRip 720p.mkv
Format : Matroska
File size : 2.79 GiB
Duration : 1h 27mn
Overall bit rate : 4 538 Kbps
Encoded date : UTC 2013-11-21 20:43:26
Writing application : mkvmerge v5.8.0 ('No Sleep / Pillow') built on Sep 2 2012 15:37:04
Writing library : libebml v1.2.3 + libmatroska v1.3.0
Video
ID : 1
Format : AVC
Format/Info : Advanced Video Codec
Format profile : [email protected]
Format settings, CABAC : Yes
Format settings, ReFrames : 5 frames
Codec ID : V_MPEG4/ISO/AVC
Duration : 1h 27mn
Bit rate : 3 872 Kbps
Width : 1 280 pixels
Height : 720 pixels
Display aspect ratio : 16:9
Frame rate : 29.970 fps
Color space : YUV
Chroma subsampling : 4:2:0
Bit depth : 8 bits
Scan type : Progressive
Bits/(Pixel*Frame) : 0.140
Stream size : 2.38 GiB (85%)
Writing library : x264 core 140 r2377 1ca7bb9
Encoding settings : cabac=1 / ref=5 / deblock=1:0:0 / analyse=0x3:0x113 / me=umh / subme=8 / psy=1 / psy_rd=1.00:0.00 / mixed_ref=1 / me_range=16 / chroma_me=1 / trellis=1 / 8x8dct=1 / cqm=0 / deadzone=21,11 / fast_pskip=1 / chroma_qp_offset=-2 / threads=6 / lookahead_threads=1 / sliced_threads=0 / nr=0 / decimate=1 / interlaced=0 / bluray_compat=0 / constrained_intra=0 / bframes=3 / b_pyramid=2 / b_adapt=2 / b_bias=0 / direct=3 / weightb=1 / open_gop=0 / weightp=2 / keyint=250 / keyint_min=25 / scenecut=40 / intra_refresh=0 / rc_lookahead=50 / rc=crf / mbtree=1 / crf=20.0 / qcomp=0.60 / qpmin=0 / qpmax=69 / qpstep=4 / ip_ratio=1.40 / aq=1:1.00
Audio #1
ID : 2
Format : AC-3
Format/Info : Audio Coding 3
Mode extension : CM (complete main)
Muxing mode : Header stripping
Codec ID : A_AC3
Duration : 1h 27mn
Bit rate mode : Constant
Bit rate : 192 Kbps
Channel(s) : 2 channels
Channel positions : Front: L R
Sampling rate : 48.0 KHz
Bit depth : 16 bits
Compression mode : Lossy
Stream size : 121 MiB (4%)
Title : АРК-ТВ
Language : Russian
Audio #2
ID : 3
Format : AC-3
Format/Info : Audio Coding 3
Mode extension : CM (complete main)
Muxing mode : Header stripping
Codec ID : A_AC3
Duration : 1h 27mn
Bit rate mode : Constant
Bit rate : 384 Kbps
Channel(s) : 6 channels
Channel positions : Front: L C R, Side: L R, LFE
Sampling rate : 48.0 KHz
Bit depth : 16 bits
Compression mode : Lossy
Stream size : 241 MiB (8%)
Language : English
Скриншоты
Если вы скачали данный релиз и хотите выложить его на другом ресурсе -
пожалуйста, указывайте первоисточник
dysonegear
Download
Для скачивания .torrent файлов необходима регистрация
Сайт не распространяет и не хранит электронные версии произведений, а лишь предоставляет доступ к создаваемому пользователями каталогу ссылок на торрент-файлы, которые содержат только списки хеш-сумм
[Профиль]  [ЛС] 

NejnosTь

Стаж: 6 лет 4 месяца

Сообщений: 36

NejnosTь · 21-Ноя-13 23:01 (спустя 1 час 7 мин.)

[Цитировать] 

Огромная благодарность за серию раздач о Кеннеди!
Спасибо за роскошный подарок!
[Профиль]  [ЛС] 

Гном

Помощник модератора

Стаж: 8 лет 9 месяцев

Сообщений: 4049

Гном · 28-Ноя-13 19:39 (спустя 6 дней)

[Цитировать] 

dysonegear писал(а):
61815212Encoding settings : cabac=1 / ref=5 / deblock=1:0:0 / analyse=0x3:0x113 / me=umh / subme=8 / psy=1 / psy_rd=1.00:0.00 / mixed_ref=1 / me_range=16 / chroma_me=1 / trellis=1 / 8x8dct=1 / cqm=0 / deadzone=21,11 / fast_pskip=1 / chroma_qp_offset=-2 / threads=6 / lookahead_threads=1 / sliced_threads=0 / nr=0 / decimate=1 / interlaced=0 / bluray_compat=0 / constrained_intra=0 / bframes=3 / b_pyramid=2 / b_adapt=2 / b_bias=0 / direct=3 / weightb=1 / open_gop=0 / weightp=2 / keyint=250 / keyint_min=25 / scenecut=40 / intra_refresh=0 / rc_lookahead=50 / rc=crf / mbtree=1 / crf=20.0 / qcomp=0.60 / qpmin=0 / qpmax=69 / qpstep=4 / ip_ratio=1.40 / aq=1:1.00
Критерии присвоения статусов # сомнительно и T временная
# Сомнительно



Сообщения из этой темы были выделены в отдельную тему Выделено из: Джон Кеннеди: День, который изменил всё / JFK: The Final Houers [2013,... [4595488]
IlyaSin
[Профиль]  [ЛС] 

IlyaSin

Донор

Стаж: 11 лет 1 месяц

Сообщений: 2405

IlyaSin · 06-Мар-15 00:32 (спустя 1 год 3 месяца)

[Цитировать] 

[отредактировано]
Прошу при обсуждении раздачи соблюдать Правила пользования данным ресурсом
Цитата:

Всем участникам данного форума запрещается:
2.9. Проявлять расовую, национальную, политическую и религиозную неприязнь, пропагандировать терроризм, экстремизм, наркотики и прочие темы, несовместимые с общепринятыми законами морали и приличия.

kalmak, устное предупреждение за нарушение правил ресурса, следующие нарушения повлекут за собой запрет оставлять на форуме сообщения.
отредактировал IlyaSin
[Профиль]  [ЛС] 
 
Ответить
Loading...
Error