Легенда о большой лапе/ Pound Puppies and the Legend of Big Paw (Пьер Дечеллес / Pierre DeCelles) [1988, Детский, Приключения, Мюзикл, TVRip > DVD] MVO (ОРТ)

Страницы:  1

Ответить
Автор
Сообщение

amber666

Стаж: 9 лет 3 месяца

Сообщений: 988

amber666 · 21-Сен-11 20:51 (7 лет 4 месяца назад, ред. 07-Июн-14 18:36)

Легенда о большой лапе / Pound Puppies and the Legend of Big Paw
Страна: США
Жанр: Детский, Приключения, Мюзикл
Продолжительность: 01:13:31
Год выпуска: 1988
Перевод: Профессиональный (многоголосый, закадровый) (ОРТ)
Русские субтитры: нет
Режиссёры: Пьер Дечеллес (Pierre DeCelles)

С давних времен английские рыцари боролись за право обладать Волшебным клинком, который давал власть над всей Англией. Однажды на турнире победил Черный Рыцарь. Но ему не суждено было стать королем.Клинок получил крестьянский юноша, а помог ему в этом его щенок. Юноша стал королем Англии, а пес получил Волшебную кость. Эта кость подарила всем собакам необычайную силу разговаривать с людьми.Прошло много лет… Кость из Волшебной скалы попала в музей, а люди и животные зажили в полном согласии и понимании. Однако потомок Черного Рыцаря решил украсть Волшебную кость и вновь попытаться покорить весь мир.
Роли озвучивали

Грег Берг (Greg Berg) ... Beamer
Рут Бацци (Ruth Buzzi) ... Nose Marie
Нэнси Картрайт (Nancy Cartwright) ... Bright Eyes
Кэти Кавадини (Cathy Cavadini) ... Charlamange / Collette
Райан Дэвис (Ryan Davis) ... Puppy
Джои Дедио (Joey Dedio) ... Jeff
Эшли Холл (Ashley Hall) ... Cooler
Бреннан Ховард (Brennan Howard) ... Cooler / Digalot
Дженис Кавай (Janice Kawaye) ... Tammy
Элвин Кушнер (Alwyn Kushner) ... Whopper's Neice
Джаспер Кушнер (Jasper Kushner) ... Whopper's Nephew
Робби Ли (Robbie Lee) ... Puppy
Тони Лонго (Tony Longo) ... Big Paw
Хэл Райл (Hal Rayle) ... Howler
Джордж Роуз (George Rose) ... Sir McNasty / Marvin McNasty
Вейн Шерзер (Wayne Scherzer) ... Lumpy
Сьюзен Сайло (Susan Silo) ... Florence
Джеймс Сводек (James Swodec) ... Arthur
Марк Веха (Mark Vieha) ... Big Paw
Б.Дж. Уорд (B.J. Ward) ... Whopper / Collette
Фрэнк Уэлкер (Frank Welker) ... Bones / Hairball / Reporter / дополнительные голоса
Скриншот меню


Ссылка на альтернативные раздачи
Качество: TVRip
Формат: DVD-Video
Видео: Кодек:MPEG-2 (PAL), Разрешение: 720х576, Соотношение сторон: 4:3, Частота кадров: 25,000
Аудио: [Русский, Профессиональный]Кодек:AC-3, Частота:48,0 Кгц, Каналы:2 (L,R), Битрейт:256(kbps)
Субтитры: отсутствуют
Подробные технические данные

MediaInfo
Полное имя : F:\Мультики\Папка для раздач\Легенда о большой лапе (Pound Puppies and the Legend of Big Paw)\ОРТ\VTS_01_1.VOB
Формат : MPEG-PS
Размер файла : 1024 Мбайт
Продолжительность : 29 м.
Общий поток : 4866 Кбит/сек
Видео
Идентификатор : 224 (0xE0)
Формат : MPEG Video
Версия формата : Version 2
Профиль формата : [email protected]
Параметр BVOP формата : Да
Параметр матрицы формата : По умолчанию
Параметры GOP формата : M=3, N=12
Продолжительность : 29 м.
Вид битрейта : Переменный
Битрейт : 4513 Кбит/сек
Номинальный битрейт : 9260 Кбит/сек
Ширина : 720 пикс.
Высота : 576 пикс.
Соотношение сторон : 4:3
Частота кадров : 25,000 кадр/сек
Стандарт вещания : PAL
Цветовое пространство : YUV
Подвыборка цветности : 4:2:0
Битовая глубина : 8 бит
Тип развёртки : Чересстрочная
Порядок развёртки : Верхнее поле первое
Метод сжатия : С потерями
Бит/(Пиксели*Кадры) : 0.435
Размер потока : 950 Мбайт (93%)
Аудио
Идентификатор : 189 (0xBD)-128 (0x80)
Формат : AC-3
Формат/Информация : Audio Coding 3
Расширение режима : CM (complete main)
Режим смешивания : DVD-Video
Продолжительность : 29 м.
Вид битрейта : Постоянный
Битрейт : 256 Кбит/сек
Канал(ы) : 2 канала(ов)
Расположение каналов : Front: L R
Частота : 48,0 КГц
Битовая глубина : 16 бит
Метод сжатия : С потерями
Задержка видео : -96 мс.
Размер потока : 53,9 Мбайт (5%)
Меню
DVD Info
Title: Cartoons disc
Size: 2.63 Gb ( 2 759 132 KBytes ) - DVD-5
Enabled regions: 1, 2, 3, 4, 5, 6, 7, 8
VTS_01 :
Play Length: 01:13:31+00:00:01
Video: PAL 4:3 (720x576) VBR
Audio:
Not specified (Dolby AC3, 2 ch)
Subtitles:
Not specified
Menu Video:
PAL 4:3 (720x576) VBR
Menu Subtitles:
Not specified
Menu Language Unit :
Root Menu

Мои Раздачи
Download
Для скачивания .torrent файлов необходима регистрация
Сайт не распространяет и не хранит электронные версии произведений, а лишь предоставляет доступ к создаваемому пользователями каталогу ссылок на торрент-файлы, которые содержат только списки хеш-сумм
[Профиль]  [ЛС] 

amber666

Стаж: 9 лет 3 месяца

Сообщений: 988

amber666 · 21-Сен-11 21:07 (спустя 15 мин.)

[Цитировать] 

Попозже выложу в Дублированном переводе от ТНТ и пиратской одноголоске, может кто-нибудь скачает оригинальный рип и сделает его с 4 дорожками.
[Профиль]  [ЛС] 

Sleon2002

VIP (Заслуженный)

Стаж: 11 лет

Сообщений: 3615

Sleon2002 · 21-Сен-11 23:29 (спустя 2 часа 22 мин.)

[Цитировать] 

amber666
Сделайте, пожалуйста, еще один скриншот с названием мультфильма.
[Профиль]  [ЛС] 

Джулиса

Стаж: 9 лет 1 месяц

Сообщений: 1


Джулиса · 22-Сен-11 20:42 (спустя 21 час, ред. 22-Сен-11 20:42)

[Цитировать] 

Огромнейшее спасибо за этот мультфильм, я его ищу уже так давно!!!! Спасибо!
А у вас нет мультфильма Виджит спешит на помощь? тоже нигде не могу найти (((
[Профиль]  [ЛС] 

amber666

Стаж: 9 лет 3 месяца

Сообщений: 988

amber666 · 22-Сен-11 21:23 (спустя 40 мин.)

[Цитировать] 

Джулиса
Вот рип с моей оцифровки http://rutracker.org/forum/viewtopic.php?t=2969034 я его выкладывал в мае прошлого года.
[Профиль]  [ЛС] 

YurBan86

Стаж: 11 лет 9 месяцев

Сообщений: 18

YurBan86 · 23-Сен-11 17:35 (спустя 20 часов)

[Цитировать] 

Огромнейшее Вам спасибо! Выкладывайте, пожалуйста, в одноголоске, я в детстве смотрел именно с таким переводом.
amber666 писал(а):
может кто-нибудь скачает оригинальный рип и сделает его с 4 дорожками.
Я это сделаю, выкладывайте. Ждать еще двух дорог или пока деать релиз с двумя имеющимися (эта+англ.)?
[Профиль]  [ЛС] 

amber666

Стаж: 9 лет 3 месяца

Сообщений: 988

amber666 · 23-Сен-11 20:02 (спустя 2 часа 27 мин.)

[Цитировать] 

YurBan86
Уже выложил:
ТНТ - http://rutracker.org/forum/viewtopic.php?t=3744493
Авторский - http://rutracker.org/forum/viewtopic.php?t=3744761
[Профиль]  [ЛС] 

YurBan86

Стаж: 11 лет 9 месяцев

Сообщений: 18

YurBan86 · 28-Сен-11 02:18 (спустя 4 дня)

[Цитировать] 

Рип сделал, но раздача была тут же закрыта за несоответствие параметрв видео. Дело в том, что DVD нигде в сети найти не могу, нашел только 2 рипа в avc. Если бы это был DivX/XviD рип, его бы пропустили (качество неплохое), но mkv-релизы с таким качеством видео раздавать нельзя. Не перекодировать же мне его в Xvid (тем более, что, помойму, так тоже нельзя). Так что я выложил этот рип (mkv, 4 дорожки) на других трекерах. Кому надо, пишите в ЛС. amber666, еще раз спасибо!
[Профиль]  [ЛС] 

xfiles

RG Мультфильмы

Стаж: 11 лет 3 месяца

Сообщений: 44451

xfiles · 28-Сен-11 10:59 (спустя 8 часов)

[Цитировать] 

YurBan86
http://rutracker.org/forum/viewtopic.php?p=47909579#47909579
[Профиль]  [ЛС] 

YurBan86

Стаж: 11 лет 9 месяцев

Сообщений: 18

YurBan86 · 28-Сен-11 14:08 (спустя 3 часа)

[Цитировать] 

А... Оставили все-таки до лучших времён (ссылка на раздачу выше). medvezhonokkkk написал мне, что нашёл какой-то рип, просил дорожки. Может, его рип получше будет. Дам ему сегодня вечером или завтра подогнанные дороги, он их прилепит к видео и выложит.
[Профиль]  [ЛС] 
 
Ответить
Loading...
Error