Ох и Ах (Юрий Прытков) [1975, мультфильм, DVDRip]

Страницы:  1

Ответить
Автор
Сообщение

xfiles

RG Мультфильмы

Стаж: 10 лет 6 месяцев

Сообщений: 41048

xfiles · 26-Июн-11 15:41 (6 лет 10 месяцев назад, ред. 26-Июн-11 17:17)

Ох и Ах
Страна: СССР / Союзмультфильм
Жанр: мультфильм
Продолжительность: 00:08:45
Год выпуска: 1975
Русские субтитры: нет
Режиссёр: Юрий Прытков
Описание: Оптимист "Ах" и пессимист "Ох" на все смотрят с противоположных сторон.
Релиз:
Качество: DVDRip
Формат: AVI
Видео: 704x544 (1.29:1), 25 fps, XviD MPEG-4 ~2218 kbps avg, 0.23 bit/pixel
Аудио: 48 kHz, AC3 Dolby Digital, 2/0 (L,R) ch, ~192 kbps
Субтитры: отсутствуют
Подробные тех. данные
General
Complete name : Ох и Ах.1975.avi
Format : AVI
Format/Info : Audio Video Interleave
File size : 152 MiB
Duration : 8mn 45s
Overall bit rate : 2 420 Kbps
Movie name : Ох и Ах
Director : Юрий Прытков
Writing application : VirtualDubMod 1.5.10.2 (build 2542/release)
Copyright : 1975, Союзмультфильм
Comment : DVDRip / xfiles / RG Multfilmy / rutracker.org
Video
ID : 0
Format : MPEG-4 Visual
Format profile : Advanced [email protected]
Format settings, BVOP : 2
Format settings, QPel : No
Format settings, GMC : No warppoints
Format settings, Matrix : Custom
Muxing mode : Packed bitstream
Codec ID : DX50
Codec ID/Hint : DivX 5
Duration : 8mn 45s
Bit rate : 2 218 Kbps
Width : 704 pixels
Height : 544 pixels
Display aspect ratio : 1.294
Frame rate : 25.000 fps
Color space : YUV
Chroma subsampling : 4:2:0
Bit depth : 8 bits
Scan type : Progressive
Compression mode : Lossy
Bits/(Pixel*Frame) : 0.232
Stream size : 139 MiB (92%)
Writing library : XviD 64
Audio
ID : 1
Format : AC-3
Format/Info : Audio Coding 3
Mode extension : CM (complete main)
Codec ID : 2000
Duration : 8mn 45s
Bit rate mode : Constant
Bit rate : 192 Kbps
Channel(s) : 2 channels
Channel positions : Front: L R
Sampling rate : 48.0 KHz
Bit depth : 16 bits
Compression mode : Lossy
Stream size : 12.0 MiB (8%)
Alignment : Aligned on interleaves
Interleave, duration : 40 ms (1.00 video frame)
Interleave, preload duration : 512 ms
Скриншоты
Download
Для скачивания .torrent файлов необходима регистрация
Сайт не распространяет и не хранит электронные версии произведений, а лишь предоставляет доступ к создаваемому пользователями каталогу ссылок на торрент-файлы, которые содержат только списки хеш-сумм
[Профиль]  [ЛС] 

xfiles

RG Мультфильмы

Стаж: 10 лет 6 месяцев

Сообщений: 41048

xfiles · 26-Июн-11 17:07 (спустя 1 час 25 мин.)

[Цитировать] 

Сравнение с http://rutracker.org/forum/viewtopic.php?t=1379679 http://screenshotcomparison.com/comparison/62222
[Профиль]  [ЛС] 

Jusyfruit

Стаж: 8 лет 1 месяц

Сообщений: 1

Jusyfruit · 29-Ноя-11 14:17 (спустя 5 месяцев 2 дня)

[Цитировать] 

Качество плохое Жаль...
[Профиль]  [ЛС] 

xfiles

RG Мультфильмы

Стаж: 10 лет 6 месяцев

Сообщений: 41048

xfiles · 29-Ноя-11 17:09 (спустя 2 часа 52 мин.)

[Цитировать] 

Jusyfruit
Это - лучшее из того, что доступно.
[Профиль]  [ЛС] 

FireFox Фан

Стаж: 6 лет 7 месяцев

Сообщений: 179

FireFox Фан · 22-Ноя-17 09:05 (спустя 5 лет 11 месяцев)

[Цитировать] 

xfiles писал(а):
49466491Jusyfruit
Это - лучшее из того, что доступно.
На канале "Мультики студии Союзмультфильм" только размер меньше. А качество гораздо приятней у этого варианта
[Профиль]  [ЛС] 

xfiles

RG Мультфильмы

Стаж: 10 лет 6 месяцев

Сообщений: 41048

xfiles · 22-Ноя-17 10:54 (спустя 1 час 48 мин., ред. 22-Ноя-17 10:54)

[Цитировать] 

FireFox Фан писал(а):
74281565спустя 5 лет 11 месяцев
FireFox Фан, что вас так рассмешило?
[Профиль]  [ЛС] 
 
Ответить
Loading...
Error