Энеида / Енеїда (Владимир Дахно) [1991, анимация, сатира, экранизация, DVDRip] UKR, rus sub

Страницы:  1

Ответить
Автор
Сообщение

xfiles

RG Мультфильмы

Стаж: 10 лет 10 месяцев

Сообщений: 42395

xfiles · 27-Фев-11 18:27 (7 лет 6 месяцев назад, ред. 27-Фев-11 18:48)

Энеида / Енеїда
Год выпуска: 1991
Страна: СССР / Украина
Жанр: анимация, сатира, экранизация
Продолжительность: 01:08:35
Перевод: Субтитры
Русские субтитры: есть
Режиссер: Владимир Дахно
Текст читает: А. Подубинський
Описание: По мотивам одноименной поэмы И. П. Котляревского «Энеида».
Эней за время своего путешествия успел побывать и в раю и в аду. Но везде он оставался настоящим казаком, способным с честью выйти из любой ситуации.
Ссылка по теме: http://ru.wikipedia.org/wiki/Котляревский,_Иван_Петрович
Доп. информация: сделано из DVD5. За рип спасибо Nyc-2008. Видео подверглось небольшой чистке от царапин.
Релиз группы:
Качество: DVDRip
Формат: AVI
Видео: 704x544 (1.29:1), 25 fps, XviD MPEG-4 ~2393 kbps avg, 0.25 bit/pixel
Аудио: Украинский (48 kHz, AC3 Dolby Digital, 2/0 (L,R) ch, ~192 kbps)
Субтитры:
1. русские [в переводе Бражнина Ильи Яковлевича, 1953 г.]
2. русские [в переводе Веры Аркадьевны Потаповой, 1961 г.]
вложены в раздачу отдельными *.srt файлами (SubRip format)
MediaInfo
General
Complete name : E:\VIDEO_Mult\Eneyida\Eneyida.1991.avi
Format : AVI
Format/Info : Audio Video Interleave
File size : 1.24 GiB
Duration : 1h 8mn
Overall bit rate : 2 595 Kbps
Writing application : VirtualDubMod 1.5.10.2 (build 2542/release)
Comment : Nyc-2008 / RG Multfilmy / rutracker.org
Video
ID : 0
Format : MPEG-4 Visual
Format profile : Advanced [email protected]
Format settings, BVOP : 2
Format settings, QPel : No
Format settings, GMC : No warppoints
Format settings, Matrix : Custom
Muxing mode : Packed bitstream
Codec ID : XVID
Codec ID/Hint : XviD
Duration : 1h 8mn
Bit rate : 2 394 Kbps
Width : 704 pixels
Height : 544 pixels
Display aspect ratio : 1.294
Frame rate : 25.000 fps
Color space : YUV
Chroma subsampling : 4:2:0
Bit depth : 8 bits
Scan type : Progressive
Compression mode : Lossy
Bits/(Pixel*Frame) : 0.250
Stream size : 1.15 GiB (92%)
Writing library : XviD 1.2.1 (UTC 2008-12-04)
Audio
ID : 1
Format : AC-3
Format/Info : Audio Coding 3
Mode extension : CM (complete main)
Codec ID : 2000
Duration : 1h 8mn
Bit rate mode : Constant
Bit rate : 192 Kbps
Channel(s) : 2 channels
Channel positions : Front: L R
Sampling rate : 48.0 KHz
Bit depth : 16 bits
Compression mode : Lossy
Stream size : 94.2 MiB (7%)
Alignment : Split accross interleaves
Interleave, duration : 40 ms (1.00 video frame)
Interleave, preload duration : 500 ms
Download
Для скачивания .torrent файлов необходима регистрация
Сайт не распространяет и не хранит электронные версии произведений, а лишь предоставляет доступ к создаваемому пользователями каталогу ссылок на торрент-файлы, которые содержат только списки хеш-сумм
[Профиль]  [ЛС] 

Gizmoboy

Стаж: 10 лет 2 месяца

Сообщений: 484


Gizmoboy · 28-Фев-11 12:23 (спустя 17 часов)

[Цитировать] 

автор, а почему отдельными? там же каких-то жалких 50 килобайт!
[Профиль]  [ЛС] 

xfiles

RG Мультфильмы

Стаж: 10 лет 10 месяцев

Сообщений: 42395

xfiles · 28-Фев-11 12:32 (спустя 9 мин.)

[Цитировать] 

Gizmoboy писал(а):
автор, а почему отдельными? там же каких-то жалких 50 килобайт!
А какие есть мысли по поводу внедрения SRT субтитров в контейнер AVI?
[Профиль]  [ЛС] 

Gizmoboy

Стаж: 10 лет 2 месяца

Сообщений: 484


Gizmoboy · 28-Фев-11 15:03 (спустя 2 часа 30 мин.)

[Цитировать] 

Хотите сказать, что все файлы с несколькими субтитровыми дорожками, которые я видел, были строго mkv? Cтранно, я думал, что если несколько аудиодорожек в авишку запихнуть можно, то уж субтитровую и подавно.
[Профиль]  [ЛС] 

xfiles

RG Мультфильмы

Стаж: 10 лет 10 месяцев

Сообщений: 42395

xfiles · 17-Апр-11 14:32 (спустя 1 месяц 16 дней)

[Цитировать] 

Смотрите также мультфильм 1969 г. Приключения казака Энея (Нина Василенко).


Сообщения из этой темы были выделены в отдельный топик galuschka
xfiles
[Профиль]  [ЛС] 

nd4spd2005

Стаж: 9 лет 7 месяцев

Сообщений: 7


nd4spd2005 · 16-Апр-12 19:55 (спустя 11 месяцев)

[Цитировать] 

Такі речі треба читати в оригіналі
[Профиль]  [ЛС] 

nibilg

Стаж: 8 лет 7 месяцев

Сообщений: 6


nibilg · 24-Фев-13 19:28 (спустя 10 месяцев)

[Цитировать] 

а че еще и перевод кому то нужен?!!! ну вы блин даете!!!
[Профиль]  [ЛС] 

Керриблю

Стаж: 6 лет 1 месяц

Сообщений: 2


Керриблю · 25-Мар-13 09:17 (спустя 1 месяц)

[Цитировать] 

Цитата:
Такі речі треба читати в оригіналі А ви,прошу пана, прочитали Енеїду вповні[ ?А ви впевнені, що наші діти її прочитають?? Хай хоча б подивляться/quote]
[Профиль]  [ЛС] 

dencher76

Стаж: 9 лет 1 месяц

Сообщений: 203

dencher76 · 13-Авг-14 17:40 (спустя 1 год 4 месяца)

[Цитировать] 

nd4spd2005 писал(а):
52573197Такі речі треба читати в оригіналі
Котляревского? а то! не только его Энеиду.
Я в данном случае с Николая I пример беру
[Профиль]  [ЛС] 

mantikoshka

Стаж: 9 лет 11 месяцев

Сообщений: 2


mantikoshka · 26-Янв-15 03:30 (спустя 5 месяцев 12 дней)

[Цитировать] 

Ой, дуже дякую, чудова річ! Скучила бо давно не бачила) Якраз час передивитись
[Профиль]  [ЛС] 

Matrix-tdi

Стаж: 6 лет 10 месяцев

Сообщений: 1


Matrix-tdi · 07-Июн-15 01:29 (спустя 4 месяца 11 дней)

[Цитировать] 

Мульт класный но на русском посмотреть
[Профиль]  [ЛС] 

Felidae1983

Стаж: 9 лет 10 месяцев

Сообщений: 266


Felidae1983 · 07-Мар-17 16:06 (спустя 1 год 9 месяцев, ред. 07-Мар-17 16:06)

[Цитировать] 

Цитата:
Жанр: анимация, сатира, экранизация
А на что вы сатиру в Энеиде видите? Жанр тогда уж - комедия
[Профиль]  [ЛС] 
 
Ответить
Loading...
Error