Восстановление постеров и скриншотов в раздачах. Исправление ошибок и неточностей.

Страницы :   Пред.  1, 2, 3, 4, 5, 6, 7, 8  След.

Ответить
Автор
Сообщение

komm zu mir

Помощник модератора

Стаж: 11 лет 1 месяц

Сообщений: 5087

komm zu mir · 09-Окт-18 08:59 (5 месяцев 11 дней назад, ред. 05-Окт-18 11:55)

[Цитировать] 

Сделано
http://rutracker.org/forum/viewtopic.php?t=3307761
http://rutracker.org/forum/viewtopic.php?t=3298288
скрытый текст
Код:
[img=right]http://i89.fastpic.ru/big/2018/1003/bc/9e8f49dc58629c3a471b7b019804aabc.jpg[/img]


Сделано еще в прошлый раз
скрытый текст
http://rutracker.org/forum/viewtopic.php?t=43763
скрытый текст
Трудно быть богом / Es ist nicht leicht ein Gott zu sein
Режиссер: Петер Фляйшман / Peter Fleischmann
Страна: СССР, Германия, Франция, Швейцария
Продолжительность: 02:06:00
Код:
[img=right]http://i89.fastpic.ru/big/2018/1002/ae/1fd82087d7f5f9a3e8165d397bbea1ae.jpg[/img]
Код:
[spoiler="Скриншоты фильма"]
[URL=https://fastpic.ru/view/91/2018/1002/57c797bc45556e441dc13603f1bcb2b4.png.html][IMG]http://i91.fastpic.ru/thumb/2018/1002/b4/57c797bc45556e441dc13603f1bcb2b4.jpeg[/IMG][/URL] [URL=https://fastpic.ru/view/91/2018/1002/_ac057fbe589f1048cde991ef49cca3f9.png.html][IMG]http://i91.fastpic.ru/thumb/2018/1002/f9/_ac057fbe589f1048cde991ef49cca3f9.jpeg[/IMG][/URL] [URL=https://fastpic.ru/view/91/2018/1002/_e07b978b7735c704a0d4f68ec93b3ad2.png.html][IMG]http://i91.fastpic.ru/thumb/2018/1002/d2/_e07b978b7735c704a0d4f68ec93b3ad2.jpeg[/IMG][/URL] [URL=https://fastpic.ru/view/91/2018/1002/6f3ced247b82cc4ea100b5c1a91c23a7.png.html][IMG]http://i91.fastpic.ru/thumb/2018/1002/a7/6f3ced247b82cc4ea100b5c1a91c23a7.jpeg[/IMG][/URL] [URL=https://fastpic.ru/view/91/2018/1002/a1adb51565b24de18589a1789048231e.png.html][IMG]http://i91.fastpic.ru/thumb/2018/1002/1e/a1adb51565b24de18589a1789048231e.jpeg[/IMG][/URL] [URL=https://fastpic.ru/view/91/2018/1002/dff94885b61d5ce4d0aa0a7baeaf6c6a.png.html][IMG]http://i91.fastpic.ru/thumb/2018/1002/6a/dff94885b61d5ce4d0aa0a7baeaf6c6a.jpeg[/IMG][/URL] [URL=https://fastpic.ru/view/91/2018/1002/81067ba4327679bbced74d03364241ac.png.html][IMG]http://i91.fastpic.ru/thumb/2018/1002/ac/81067ba4327679bbced74d03364241ac.jpeg[/IMG][/URL] [URL=https://fastpic.ru/view/91/2018/1002/fc78c5e3c229ce52ee4ac5c2b71b58f8.png.html][IMG]http://i91.fastpic.ru/thumb/2018/1002/f8/fc78c5e3c229ce52ee4ac5c2b71b58f8.jpeg[/IMG][/URL] [URL=https://fastpic.ru/view/91/2018/1002/ade4cc6670fe426b07ac0ffcc157a386.png.html][IMG]http://i91.fastpic.ru/thumb/2018/1002/86/ade4cc6670fe426b07ac0ffcc157a386.jpeg[/IMG][/URL]
[/spoiler]
[spoiler="MI 1"]
Общее
Полное имя                               : C:\torrents\Трудно быть Богом\Trudno_byt_bogom_[www.torrents.ru]_CD1.avi
Формат                                   : AVI
Формат/Информация                        : Audio Video Interleave
Размер файла                             : 700 Мбайт
Продолжительность                        : 1 ч. 4 м.
Режим общего битрейта                    : Переменный
Общий поток                              : 1515 Кбит/сек
Программа кодирования                    : VirtualDubMod 1.5.10.1 (build 2389/release)
Библиотека кодирования                   : VirtualDubMod build 2389/release
Видео
Идентификатор                            : 0
Формат                                   : MPEG-4 Visual
Настройки формата                        : BVOP1
Параметр BVOP формата                    : 1
Параметр QPel формата                    : Нет
Параметр GMC формата                     : Без точки перехода
Параметр матрицы формата                 : Default (H.263)
Режим смешивания                         : Сжатый битовый поток
Идентификатор кодека                     : DX50
Идентификатор кодека/Подсказка           : DivX 5
Продолжительность                        : 1 ч. 4 м.
Битрейт                                  : 1318 Кбит/сек
Номинальный битрейт                      : 4000 Кбит/сек
Ширина                                   : 720 пикселей
Высота                                   : 416 пикселей
Соотношение сторон                       : 1,731
Частота кадров                           : 25,000 кадров/сек
Цветовое пространство                    : YUV
Субдискретизация насыщенности            : 4:2:0
Битовая глубина                          : 8 бит
Тип развёртки                            : Прогрессивная
Метод сжатия                             : С потерями
Бит/(Пиксели*Кадры)                      : 0.176
Размер потока                            : 609 Мбайт (87%)
Библиотека кодирования                   : DivX 5.0.3 (UTC 2003-01-24)
Аудио
Идентификатор                            : 1
Формат                                   : MPEG Audio
Версия формата                           : Version 1
Профиль формата                          : Layer 3
Настройки формата                        : Joint stereo / MS Stereo
Идентификатор кодека                     : 55
Идентификатор кодека/Подсказка           : MP3
Продолжительность                        : 1 ч. 4 м.
Вид битрейта                             : Переменный
Битрейт                                  : 192 Кбит/сек
Каналы                                   : 2 канала
Частота                                  : 48,0 КГц
Частота кадров                           : 41,667 кадра/сек (1152 SPF)
Метод сжатия                             : С потерями
Размер потока                            : 84,8 Мбайт (12%)
Выравнивание                             : Соединение по промежуткам
Продолжительность промежутка             : 24  мс. (0,60 видеокадр)
Время предзагрузки промежутка            : 350  мс.
Библиотека кодирования                   : LAME3.90.
Настройки программы                      : -m j -V 0 -q 5 -lowpass 19.3 --abr 192
[/spoiler]
[spoiler="MI 2"]
Общее
Полное имя                               : C:\torrents\Трудно быть Богом\Trudno_byt_bogom_[www.torrents.ru]_CD2.avi
Формат                                   : AVI
Формат/Информация                        : Audio Video Interleave
Размер файла                             : 703 Мбайт
Продолжительность                        : 1 ч. 2 м.
Режим общего битрейта                    : Переменный
Общий поток                              : 1569 Кбит/сек
Программа кодирования                    : Nandub v1.0rc2
Библиотека кодирования                   : Nandub build 1853/release
Видео
Идентификатор                            : 0
Формат                                   : MPEG-4 Visual
Настройки формата                        : BVOP1
Параметр BVOP формата                    : 1
Параметр QPel формата                    : Нет
Параметр GMC формата                     : Без точки перехода
Параметр матрицы формата                 : Default (H.263)
Режим смешивания                         : Сжатый битовый поток
Идентификатор кодека                     : DX50
Идентификатор кодека/Подсказка           : DivX 5
Продолжительность                        : 1 ч. 2 м.
Продолжительность оригинала              : 1 ч. 2 м.
Битрейт                                  : 1372 Кбит/сек
Ширина                                   : 720 пикселей
Высота                                   : 416 пикселей
Соотношение сторон                       : 1,731
Частота кадров                           : 25,000 кадров/сек
Цветовое пространство                    : YUV
Субдискретизация насыщенности            : 4:2:0
Битовая глубина                          : 8 бит
Тип развёртки                            : Прогрессивная
Метод сжатия                             : С потерями
Бит/(Пиксели*Кадры)                      : 0.183
Размер потока                            : 615 Мбайт (87%)
Библиотека кодирования                   : DivX 5.0.3 (UTC 2003-01-24)
Аудио
Идентификатор                            : 1
Формат                                   : MPEG Audio
Версия формата                           : Version 1
Профиль формата                          : Layer 3
Настройки формата                        : Joint stereo / MS Stereo
Идентификатор кодека                     : 55
Идентификатор кодека/Подсказка           : MP3
Продолжительность                        : 1 ч. 2 м.
Продолжительность оригинала              : 1 ч. 2 м.
Вид битрейта                             : Переменный
Битрейт                                  : 184 Кбит/сек
Каналы                                   : 2 канала
Частота                                  : 48,0 КГц
Метод сжатия                             : С потерями
Размер потока                            : 82,6 Мбайт (12%)
Выравнивание                             : Соединение по промежуткам
Продолжительность промежутка             : 24  мс. (0,60 видеокадр)
Время предзагрузки промежутка            : 492  мс.
[/spoiler]

скрытый текст
http://rutracker.org/forum/viewtopic.php?t=559287
скрытый текст
Год выпуска: 1990 1989
Страна: СССР, Германия, Франция, Швейцария
Аудиодорожки: русская, немецкая
Субтитры: нет
Код:
[img=right]http://i89.fastpic.ru/big/2018/1002/ae/1fd82087d7f5f9a3e8165d397bbea1ae.jpg[/img]
Код:
[spoiler="Скриншоты меню"]
[URL=https://fastpic.ru/view/91/2018/1002/_783083e4b5661564259c184660284306.png.html][IMG]http://i91.fastpic.ru/thumb/2018/1002/06/_783083e4b5661564259c184660284306.jpeg[/IMG][/URL] [URL=https://fastpic.ru/view/91/2018/1002/_fec6025df29b8a202f401484d5503d85.png.html][IMG]http://i91.fastpic.ru/thumb/2018/1002/85/_fec6025df29b8a202f401484d5503d85.jpeg[/IMG][/URL] [URL=https://fastpic.ru/view/91/2018/1002/_0f12d78beeaff46aec42423020ecf579.png.html][IMG]http://i91.fastpic.ru/thumb/2018/1002/79/_0f12d78beeaff46aec42423020ecf579.jpeg[/IMG][/URL] [URL=https://fastpic.ru/view/91/2018/1002/_3385970edf28ecf999c621dce8de4820.png.html][IMG]http://i91.fastpic.ru/thumb/2018/1002/20/_3385970edf28ecf999c621dce8de4820.jpeg[/IMG][/URL] [URL=https://fastpic.ru/view/91/2018/1002/_991a0e59efee43e737d800717778c58e.png.html][IMG]http://i91.fastpic.ru/thumb/2018/1002/8e/_991a0e59efee43e737d800717778c58e.jpeg[/IMG][/URL] [URL=https://fastpic.ru/view/91/2018/1002/_ddd238644d90d4b15249b84de3674866.png.html][IMG]http://i91.fastpic.ru/thumb/2018/1002/66/_ddd238644d90d4b15249b84de3674866.jpeg[/IMG][/URL]
[/spoiler]
[spoiler="Скриншоты фильма"]
[URL=https://fastpic.ru/view/89/2018/1002/a20316e484c0c0ac41b286334ccd4d72.png.html][IMG]http://i89.fastpic.ru/thumb/2018/1002/72/a20316e484c0c0ac41b286334ccd4d72.jpeg[/IMG][/URL] [URL=https://fastpic.ru/view/89/2018/1002/_690b734bb40b0e3805b4e2a7feb54265.png.html][IMG]http://i89.fastpic.ru/thumb/2018/1002/65/_690b734bb40b0e3805b4e2a7feb54265.jpeg[/IMG][/URL] [URL=https://fastpic.ru/view/89/2018/1002/_ea356fff111557ed8aa82e402524d626.png.html][IMG]http://i89.fastpic.ru/thumb/2018/1002/26/_ea356fff111557ed8aa82e402524d626.jpeg[/IMG][/URL] [URL=https://fastpic.ru/view/89/2018/1002/_01889dd832afc6280a278f788e4e80c1.png.html][IMG]http://i89.fastpic.ru/thumb/2018/1002/c1/_01889dd832afc6280a278f788e4e80c1.jpeg[/IMG][/URL] [URL=https://fastpic.ru/view/89/2018/1002/_3cba9b81fd932292c9dbca3f199d4b4f.png.html][IMG]http://i89.fastpic.ru/thumb/2018/1002/4f/_3cba9b81fd932292c9dbca3f199d4b4f.jpeg[/IMG][/URL] [URL=https://fastpic.ru/view/89/2018/1002/_8079a7157f336a9e7005fb7cd94eaa50.png.html][IMG]http://i89.fastpic.ru/thumb/2018/1002/50/_8079a7157f336a9e7005fb7cd94eaa50.jpeg[/IMG][/URL] [URL=https://fastpic.ru/view/89/2018/1002/_aee3950c8d8a18d3d8ef4266070f55ee.png.html][IMG]http://i89.fastpic.ru/thumb/2018/1002/ee/_aee3950c8d8a18d3d8ef4266070f55ee.jpeg[/IMG][/URL] [URL=https://fastpic.ru/view/89/2018/1002/bd4c3681b224c9eccb7ca4ae7d3cd839.png.html][IMG]http://i89.fastpic.ru/thumb/2018/1002/39/bd4c3681b224c9eccb7ca4ae7d3cd839.jpeg[/IMG][/URL]
[/spoiler]

скрытый текст
http://rutracker.org/forum/viewtopic.php?t=86432
скрытый текст
Трудно быть богом / Es ist nicht leicht ein Gott zu sein
Режиссер: Петер Фляйшман / Peter Fleischmann
Страна: СССР, Германия, Франция, Швейцария
Год выпуска: 1990 1989
Код:
[img=right]http://i89.fastpic.ru/big/2018/1002/ae/1fd82087d7f5f9a3e8165d397bbea1ae.jpg[/img]
Код:
[spoiler="Скриншоты фильма"]
[URL=https://fastpic.ru/view/89/2018/1002/9cda23bca5774aaa06bb407b94d5ad68.png.html][IMG]http://i89.fastpic.ru/thumb/2018/1002/68/9cda23bca5774aaa06bb407b94d5ad68.jpeg[/IMG][/URL] [URL=https://fastpic.ru/view/89/2018/1002/93b2e063ce37cafc451abdac778145f0.png.html][IMG]http://i89.fastpic.ru/thumb/2018/1002/f0/93b2e063ce37cafc451abdac778145f0.jpeg[/IMG][/URL] [URL=https://fastpic.ru/view/89/2018/1002/55918be0c353a209937276e30f08dc99.png.html][IMG]http://i89.fastpic.ru/thumb/2018/1002/99/55918be0c353a209937276e30f08dc99.jpeg[/IMG][/URL] [URL=https://fastpic.ru/view/89/2018/1002/4b76996c759587666b68aaa56d91dbf7.png.html][IMG]http://i89.fastpic.ru/thumb/2018/1002/f7/4b76996c759587666b68aaa56d91dbf7.jpeg[/IMG][/URL] [URL=https://fastpic.ru/view/89/2018/1002/da89bdeaa54b802b15ad2146b23e3ac9.png.html][IMG]http://i89.fastpic.ru/thumb/2018/1002/c9/da89bdeaa54b802b15ad2146b23e3ac9.jpeg[/IMG][/URL] [URL=https://fastpic.ru/view/89/2018/1002/cc1f07856fceff08527ea3c1cd393804.png.html][IMG]http://i89.fastpic.ru/thumb/2018/1002/04/cc1f07856fceff08527ea3c1cd393804.jpeg[/IMG][/URL] [URL=https://fastpic.ru/view/89/2018/1002/238943a3081ada5c9af713ae6a87cec0.png.html][IMG]http://i89.fastpic.ru/thumb/2018/1002/c0/238943a3081ada5c9af713ae6a87cec0.jpeg[/IMG][/URL]
[/spoiler]
[spoiler="MI"]
Общее
Полное имя                               : C:\torrents\VIDEOТрудно быть богом.avi
Формат                                   : AVI
Формат/Информация                        : Audio Video Interleave
Размер файла                             : 699 Мбайт
Продолжительность                        : 2 ч. 7 м.
Общий поток                              : 767 Кбит/сек
Библиотека кодирования                   : VirtualDub build 14279/release
Видео
Идентификатор                            : 0
Формат                                   : MPEG-4 Visual
Настройки формата                        : BVOP
Параметр BVOP формата                    : Да
Параметр QPel формата                    : Нет
Параметр GMC формата                     : Без точки перехода
Параметр матрицы формата                 : Default (H.263)
Идентификатор кодека                     : DIVX
Идентификатор кодека/Информация          : Project Mayo
Идентификатор кодека/Подсказка           : DivX 4
Продолжительность                        : 2 ч. 7 м.
Битрейт                                  : 693 Кбит/сек
Ширина                                   : 416 пикселей
Высота                                   : 272 пикселя
Соотношение сторон                       : 3:2
Частота кадров                           : 25,000 кадров/сек
Цветовое пространство                    : YUV
Субдискретизация насыщенности            : 4:2:0
Битовая глубина                          : 8 бит
Тип развёртки                            : Прогрессивная
Метод сжатия                             : С потерями
Бит/(Пиксели*Кадры)                      : 0.245
Размер потока                            : 632 Мбайт (90%)
Аудио
Идентификатор                            : 1
Формат                                   : MPEG Audio
Версия формата                           : Version 1
Профиль формата                          : Layer 3
Идентификатор кодека                     : 55
Идентификатор кодека/Подсказка           : MP3
Продолжительность                        : 2 ч. 7 м.
Вид битрейта                             : Постоянный
Битрейт                                  : 64,0 Кбит/сек
Каналы                                   : 1 канал
Частота                                  : 48,0 КГц
Метод сжатия                             : С потерями
Размер потока                            : 58,4 Мбайт (8%)
Выравнивание                             : Разделение по промежуткам
Продолжительность промежутка             : 40  мс. (1,00 видеокадр)
Время предзагрузки промежутка            : 500  мс.
[/spoiler]

скрытый текст
http://rutracker.org/forum/viewtopic.php?t=561333
скрытый текст
Год выпуска: 1990 1989



Сделано
http://rutracker.org/forum/viewtopic.php?t=3765317
скрытый текст
Яблоко в реке / Abols upe (Айварс Фрейманис / Aivars Freimanis) [1976, СССР, Мелодрама, TVRip]



Сделано
http://rutracker.org/forum/viewtopic.php?t=2697741
http://rutracker.org/forum/viewtopic.php?t=817301
скрытый текст
Код:
[img=right]http://i89.fastpic.ru/big/2018/1005/b3/5da899cda6226452d2f181f606a6b5b3.jpg[/img]
[Профиль]  [ЛС] 

Александр Макухин

Стаж: 8 лет 11 месяцев

Сообщений: 602


Александр Макухин · 13-Окт-18 13:24 (спустя 4 дня, ред. 20-Окт-18 20:07)

[Цитировать] 

Несовершеннолетние (Владимир Роговой) - Сделано
Несовершеннолетние (Владимир Роговой) [1976, Социальная драма, DVDRip]
Постер
Код:
http://i89.fastpic.ru/big/2018/1011/3e/40aed70d0fb72f8986293fe885eada3e.jpg
Обложка DVD издания
Код:
http://i91.fastpic.ru/big/2018/1011/42/1080c97298b723e0ca447d86ea93f242.jpg
Код:
[URL=https://fastpic.ru/view/89/2018/1011/953f140ade19b3b747fc3ea4cfe52dc1.jpg.html][IMG]http://i89.fastpic.ru/thumb/2018/1011/c1/953f140ade19b3b747fc3ea4cfe52dc1.jpeg[/IMG][/URL] [URL=https://fastpic.ru/view/89/2018/1011/616fb2254722204def1b375f53a96464.jpg.html][IMG]http://i89.fastpic.ru/thumb/2018/1011/64/616fb2254722204def1b375f53a96464.jpeg[/IMG][/URL] [URL=https://fastpic.ru/view/89/2018/1011/811c2a7d98b3c58641640527ae46591e.jpg.html][IMG]http://i89.fastpic.ru/thumb/2018/1011/1e/811c2a7d98b3c58641640527ae46591e.jpeg[/IMG][/URL] [URL=https://fastpic.ru/view/89/2018/1011/d5408d302502e84366fc5ff78fc0340b.jpg.html][IMG]http://i89.fastpic.ru/thumb/2018/1011/0b/d5408d302502e84366fc5ff78fc0340b.jpeg[/IMG][/URL] [URL=https://fastpic.ru/view/89/2018/1011/31d609189992a09a47b337372b9db785.jpg.html][IMG]http://i89.fastpic.ru/thumb/2018/1011/85/31d609189992a09a47b337372b9db785.jpeg[/IMG][/URL] [URL=https://fastpic.ru/view/89/2018/1011/0e6488f811bcf4286ef816053938e441.jpg.html][IMG]http://i89.fastpic.ru/thumb/2018/1011/41/0e6488f811bcf4286ef816053938e441.jpeg[/IMG][/URL] [URL=https://fastpic.ru/view/89/2018/1011/924403702e443fa8a289dd992bcad0af.jpg.html][IMG]http://i89.fastpic.ru/thumb/2018/1011/af/924403702e443fa8a289dd992bcad0af.jpeg[/IMG][/URL] [URL=https://fastpic.ru/view/89/2018/1011/9e8a25a8296b8d1771683ad8c53f8dc6.jpg.html][IMG]http://i89.fastpic.ru/thumb/2018/1011/c6/9e8a25a8296b8d1771683ad8c53f8dc6.jpeg[/IMG][/URL] [URL=https://fastpic.ru/view/89/2018/1011/7783a81d525746bf37f93591cf8033c2.jpg.html][IMG]http://i89.fastpic.ru/thumb/2018/1011/c2/7783a81d525746bf37f93591cf8033c2.jpeg[/IMG][/URL] [URL=https://fastpic.ru/view/89/2018/1011/f055399740270465dc175a918bf94cf4.jpg.html][IMG]http://i89.fastpic.ru/thumb/2018/1011/f4/f055399740270465dc175a918bf94cf4.jpeg[/IMG][/URL] [URL=https://fastpic.ru/view/89/2018/1011/fab04c4df039c61ec8a5e8d77cfe92df.jpg.html][IMG]http://i89.fastpic.ru/thumb/2018/1011/df/fab04c4df039c61ec8a5e8d77cfe92df.jpeg[/IMG][/URL]
Код:
General
Complete name                            : /media/2big-home/2Видео/2Фильмы/Отечественные/1/Nesovershennoletnie.1976.XviD.DVDRip.avi
Format                                   : AVI
Format/Info                              : Audio Video Interleave
File size                                : 1.37 GiB
Duration                                 : 1 h 21 min
Overall bit rate                         : 2 388 kb/s
Writing application                      : VirtualDubMod 1.5.10.2 (build 2540/release)
Writing library                          : VirtualDubMod build 2540/release
Video
ID                                       : 0
Format                                   : MPEG-4 Visual
Format profile                           : Advanced [email protected]
Format settings                          : BVOP3
Format settings, BVOP                    : 3
Format settings, QPel                    : No
Format settings, GMC                     : No warppoints
Format settings, Matrix                  : Default (H.263)
Codec ID                                 : XVID
Codec ID/Hint                            : XviD
Duration                                 : 1 h 21 min
Bit rate                                 : 2 186 kb/s
Width                                    : 688 pixels
Height                                   : 328 pixels
Display aspect ratio                     : 2.098
Frame rate                               : 25.000 FPS
Color space                              : YUV
Chroma subsampling                       : 4:2:0
Bit depth                                : 8 bits
Scan type                                : Progressive
Compression mode                         : Lossy
Bits/(Pixel*Frame)                       : 0.387
Stream size                              : 1.25 GiB (92%)
Writing library                          : XviD 1.2.1 (UTC 2008-12-04)
Audio
ID                                       : 1
Format                                   : AC-3
Format/Info                              : Audio Coding 3
Codec ID                                 : 2000
Duration                                 : 1 h 21 min
Bit rate mode                            : Constant
Bit rate                                 : 192 kb/s
Channel(s)                               : 2 channels
Channel positions                        : Front: L R
Sampling rate                            : 48.0 kHz
Frame rate                               : 31.250 FPS (1536 SPF)
Bit depth                                : 16 bits
Compression mode                         : Lossy
Stream size                              : 113 MiB (8%)
Alignment                                : Aligned on interleaves
Interleave, duration                     : 40  ms (1.00 video frame)
Interleave, preload duration             : 512  ms
Service kind                             : Complete Main
===========
Несовершеннолетние (Владимир Роговой) [1976, Драматическая история, DVDRip]
Постер
Код:
http://i89.fastpic.ru/big/2018/1011/3e/40aed70d0fb72f8986293fe885eada3e.jpg
Обложка DVD издания
Код:
http://i91.fastpic.ru/big/2018/1011/42/1080c97298b723e0ca447d86ea93f242.jpg
Код:
General
Complete name                            : /media/5big-home/5Видео/+Несовершеннолетние.avi
Format                                   : AVI
Format/Info                              : Audio Video Interleave
File size                                : 700 MiB
Duration                                 : 1 h 21 min
Overall bit rate mode                    : Variable
Overall bit rate                         : 1 194 kb/s
Writing application                      : VirtualDubMod 1.5.4.1 (build 2178/release)
Writing library                          : VirtualDubMod build 2178/release
Video
ID                                       : 0
Format                                   : MPEG-4 Visual
Format profile                           : Advanced [email protected]
Format settings                          : BVOP1 / Custom Matrix
Format settings, BVOP                    : 1
Format settings, QPel                    : No
Format settings, GMC                     : No warppoints
Format settings, Matrix                  : Custom
Codec ID                                 : XVID
Codec ID/Hint                            : XviD
Duration                                 : 1 h 21 min
Bit rate                                 : 1 043 kb/s
Width                                    : 608 pixels
Height                                   : 288 pixels
Display aspect ratio                     : 2.111
Frame rate                               : 25.000 FPS
Color space                              : YUV
Chroma subsampling                       : 4:2:0
Bit depth                                : 8 bits
Scan type                                : Progressive
Compression mode                         : Lossy
Bits/(Pixel*Frame)                       : 0.238
Stream size                              : 612 MiB (87%)
Writing library                          : XviD 1.2.0.dev47 (UTC 2006-11-01)
Audio
ID                                       : 1
Format                                   : MPEG Audio
Format version                           : Version 1
Format profile                           : Layer 3
Format settings                          : Joint stereo / MS Stereo
Codec ID                                 : 55
Codec ID/Hint                            : MP3
Duration                                 : 1 h 21 min
Bit rate mode                            : Variable
Bit rate                                 : 138 kb/s
Nominal bit rate                         : 160 kb/s
Channel(s)                               : 2 channels
Sampling rate                            : 48.0 kHz
Frame rate                               : 41.667 FPS (1152 SPF)
Compression mode                         : Lossy
Stream size                              : 80.7 MiB (12%)
Alignment                                : Aligned on interleaves
Interleave, duration                     : 24  ms (0.60 video frame)
Interleave, preload duration             : 133  ms
Writing library                          : LAME3.97
[Профиль]  [ЛС] 

surzhoks

Фильмографы

Стаж: 11 лет

Сообщений: 736

surzhoks · 13-Окт-18 19:28 (спустя 6 часов)

[Цитировать] 

Сделано
Четверг / Il giovedi
постер
Код:
[img]https://b.radikal.ru/b02/1810/d9/08a74894e0c3.jpg[/img]
[Профиль]  [ЛС] 

GCRaistlin

Стаж: 11 лет 2 месяца

Сообщений: 3386

GCRaistlin · 17-Окт-18 12:34 (спустя 3 дня, ред. 17-Окт-18 12:34)

[Цитировать] 

лишнее
http://rutracker.org/forum/viewtopic.php?t=4162355
Цитата:
Проклятый Юнайтед / Проклятый Лидс Юнайтед / The Damned United (Том Хупер / Tom Hooper) [2009, Великобритания, драма, комедия, биография, спорт, BDRip-AVC] AVO (Сербин) + Original Eng + Sub Rus, Eng
http://rutracker.org/forum/viewtopic.php?t=4792029
Цитата:
Разиня / Le corniaud (Жерар Ури / Gérard (Gerard) Oury) [1965, Франция, Италия, комедия, криминал, приключения, BDRip] MVO (Петербург 5 канал)
http://rutracker.org/forum/viewtopic.php?t=5432854
Цитата:
Проклятый Юнайтед / Проклятый Лидс Юнайтед / The Damned United (Том Хупер / Tom Hooper) [2009, Великобритания, драма, биография, спорт, BDRip] MVO (ТВ3) + VO + Original Eng + Sub Rus, Eng
В шапке темы также ошибочно указано, что перевод Сербина.
[Профиль]  [ЛС] 

GCRaistlin

Стаж: 11 лет 2 месяца

Сообщений: 3386

GCRaistlin · 20-Окт-18 02:00 (спустя 2 дня 13 часов)

[Цитировать] 

http://rutracker.org/forum/viewtopic.php?t=3831778
Цитата:
Лофт / Заброшенная лаборатория / Чердак / Rofuto / Loft (Киёси Куросава / Kiyoshi Kurosawa) [2005, Япония, мистика, притча, драма, ужасы, DVDRip] VO (Юки Нацуи) + Original Jpn + Sub Rus, Eng
[Профиль]  [ЛС] 

Александр Макухин

Стаж: 8 лет 11 месяцев

Сообщений: 602


Александр Макухин · 20-Окт-18 20:08 (спустя 18 часов, ред. 20-Окт-18 20:08)

[Цитировать] 

Весенний дождь (Александр Муратов, Кира Муратова) - сделано
Весенний дождь (Александр Муратов, Кира Муратова) [1958, Киноновелла, мелодрама, SATRip]
Код:
General
Complete name                            : /media/5big-home/5Видео/Весенний дождь (1958) SATRip.fenixclub.avi
Format                                   : AVI
Format/Info                              : Audio Video Interleave
File size                                : 319 MiB
Duration                                 : 25 min 27 s
Overall bit rate                         : 1 752 kb/s
Writing application                      : VirtualDubMod 1.5.10.2 (build 2540/release)
Writing library                          : VirtualDubMod build 2540/release
Video
ID                                       : 0
Format                                   : MPEG-4 Visual
Format profile                           : Advanced [email protected]
Format settings                          : BVOP1
Format settings, BVOP                    : 1
Format settings, QPel                    : No
Format settings, GMC                     : No warppoints
Format settings, Matrix                  : Default (H.263)
Codec ID                                 : XVID
Codec ID/Hint                            : XviD
Duration                                 : 25 min 27 s
Bit rate                                 : 1 550 kb/s
Width                                    : 704 pixels
Height                                   : 528 pixels
Display aspect ratio                     : 4:3
Frame rate                               : 25.000 FPS
Color space                              : YUV
Chroma subsampling                       : 4:2:0
Bit depth                                : 8 bits
Scan type                                : Progressive
Compression mode                         : Lossy
Bits/(Pixel*Frame)                       : 0.167
Stream size                              : 282 MiB (88%)
Writing library                          : XviD 1.2.0.dev47 (UTC 2006-11-01)
Audio
ID                                       : 1
Format                                   : AC-3
Format/Info                              : Audio Coding 3
Codec ID                                 : 2000
Duration                                 : 25 min 27 s
Bit rate mode                            : Constant
Bit rate                                 : 192 kb/s
Channel(s)                               : 2 channels
Channel positions                        : Front: L R
Sampling rate                            : 48.0 kHz
Frame rate                               : 31.250 FPS (1536 SPF)
Bit depth                                : 16 bits
Compression mode                         : Lossy
Stream size                              : 35.0 MiB (11%)
Alignment                                : Split accross interleaves
Interleave, duration                     : 40  ms (1.00 video frame)
Interleave, preload duration             : 500  ms
Service kind                             : Complete Main
Праздник Нептуна / Санчо с ранчо (Юрий Мамин)
Праздник Нептуна (Юрий Афанасьев, Юрий Мамин, Н. Шилок) [1986, комедия, DVD5]
Праздник Нептуна / Санчо с ранчо (Юрий Афанасьев, Юрий Мамин, Н. Шилок) [1986, 1997, комедия, DVD5]
Продолжительность:
Праздник Нептуна (00:43:15).
Санчо с ранчо (мини-сериал) (00:51:09).
Праздник Нептуна:
Директор Дома культуры запланировал на 1 января праздник Нептуна с участием 150 «моржей». Эта цифра настолько поразила областное начальство, что в село на праздник была направлена шведская делегация, которой надо было теперь показывать праздник во всей красе.
Санчо с ранчо (мини-сериал):
Пародийный сериал «Санчо с ранчо» был частью программы петербургского телевидения «Хамелеон», курировавшейся известным режиссером Юрием Маминым. Замысел этой пародии был в том, что якобы мексиканский сериал «Санчо с ранчо» зрители видели сразу в двух ипостасях: на экране и за экраном. На экране душераздирающие происшествия в солнечной Мексике, а вне экрана за ними с волнением наблюдает обычное российское семейство – бабушка и дедушка, отец и мать, дочка и сын. Фокус в том, что они же предстают и в экзотических мексиканских ролях, и словно следят сами за собой.
Праздник Нептуна:
Код:
[URL=https://fastpic.ru/view/77/2018/1013/471ca4d8afadbd78b544620614888eb7.jpg.html][IMG]http://i77.fastpic.ru/thumb/2018/1013/b7/471ca4d8afadbd78b544620614888eb7.jpeg[/IMG][/URL] [URL=https://fastpic.ru/view/77/2018/1013/9d4fbe1e1350c0661aaff0d1939ab268.jpg.html][IMG]http://i77.fastpic.ru/thumb/2018/1013/68/9d4fbe1e1350c0661aaff0d1939ab268.jpeg[/IMG][/URL] [URL=https://fastpic.ru/view/77/2018/1013/9c5cde1658559cd96dc65825ccf36232.jpg.html][IMG]http://i77.fastpic.ru/thumb/2018/1013/32/9c5cde1658559cd96dc65825ccf36232.jpeg[/IMG][/URL] [URL=https://fastpic.ru/view/77/2018/1013/34e3561788386360b1189777cbd0e49e.jpg.html][IMG]http://i77.fastpic.ru/thumb/2018/1013/9e/34e3561788386360b1189777cbd0e49e.jpeg[/IMG][/URL] [URL=https://fastpic.ru/view/77/2018/1013/17017ce5897c272a227391ac5b019ef3.jpg.html][IMG]http://i77.fastpic.ru/thumb/2018/1013/f3/17017ce5897c272a227391ac5b019ef3.jpeg[/IMG][/URL] [URL=https://fastpic.ru/view/77/2018/1013/51b1c0d69a02df857672d8f88d60dd45.jpg.html][IMG]http://i77.fastpic.ru/thumb/2018/1013/45/51b1c0d69a02df857672d8f88d60dd45.jpeg[/IMG][/URL] [URL=https://fastpic.ru/view/77/2018/1013/1473a20a688c7ddca0fed46ec609c4d9.jpg.html][IMG]http://i77.fastpic.ru/thumb/2018/1013/d9/1473a20a688c7ddca0fed46ec609c4d9.jpeg[/IMG][/URL] [URL=https://fastpic.ru/view/77/2018/1013/300ceb373c0d10b3e4e2b6e4061056fb.jpg.html][IMG]http://i77.fastpic.ru/thumb/2018/1013/fb/300ceb373c0d10b3e4e2b6e4061056fb.jpeg[/IMG][/URL] [URL=https://fastpic.ru/view/77/2018/1013/f92fbe3e567c670cc47afcc5def4d911.jpg.html][IMG]http://i77.fastpic.ru/thumb/2018/1013/11/f92fbe3e567c670cc47afcc5def4d911.jpeg[/IMG][/URL] [URL=https://fastpic.ru/view/77/2018/1013/e5f5ba4fb634513db4f947915770f7be.jpg.html][IMG]http://i77.fastpic.ru/thumb/2018/1013/be/e5f5ba4fb634513db4f947915770f7be.jpeg[/IMG][/URL]
Санчо с ранчо (мини-сериал):
Код:
[URL=https://fastpic.ru/view/79/2018/1013/f0a009a1fcab6df15ee26c4bd04e4f2e.jpg.html][IMG]http://i79.fastpic.ru/thumb/2018/1013/2e/f0a009a1fcab6df15ee26c4bd04e4f2e.jpeg[/IMG][/URL] [URL=https://fastpic.ru/view/79/2018/1013/fc189c697aa1120e70889358da500025.jpg.html][IMG]http://i79.fastpic.ru/thumb/2018/1013/25/fc189c697aa1120e70889358da500025.jpeg[/IMG][/URL] [URL=https://fastpic.ru/view/79/2018/1013/1698882fc71292cfd1e620f3108b4920.jpg.html][IMG]http://i79.fastpic.ru/thumb/2018/1013/20/1698882fc71292cfd1e620f3108b4920.jpeg[/IMG][/URL] [URL=https://fastpic.ru/view/79/2018/1013/9b5c3dfcda0899ae74b95220fae7df6b.jpg.html][IMG]http://i79.fastpic.ru/thumb/2018/1013/6b/9b5c3dfcda0899ae74b95220fae7df6b.jpeg[/IMG][/URL] [URL=https://fastpic.ru/view/79/2018/1013/1a6ae89047e509b49041612300743a14.jpg.html][IMG]http://i79.fastpic.ru/thumb/2018/1013/14/1a6ae89047e509b49041612300743a14.jpeg[/IMG][/URL] [URL=https://fastpic.ru/view/79/2018/1013/6d0572abffa983cc89b8ba0a8a2c889f.jpg.html][IMG]http://i79.fastpic.ru/thumb/2018/1013/9f/6d0572abffa983cc89b8ba0a8a2c889f.jpeg[/IMG][/URL] [URL=https://fastpic.ru/view/79/2018/1013/42030e069820d7c1ada1699b6d7390bc.jpg.html][IMG]http://i79.fastpic.ru/thumb/2018/1013/bc/42030e069820d7c1ada1699b6d7390bc.jpeg[/IMG][/URL]
[Профиль]  [ЛС] 

grandmajor

RG Мультфильмы

Стаж: 10 лет 3 месяца

Сообщений: 2854

grandmajor · 20-Окт-18 22:00 (спустя 1 час 52 мин.)

[Цитировать] 

Александр Макухин
Не уверен, что офоромление DVD "Праздник Нептуна" нужно делать именно так.
"Санчо с ранчо" - это дополнительные материалы диска, а не основной материал. Это не фильм, а сериал, к тому же там указано, что только окончание сериала, а не весь. Так что достаточно упоминание о его наличии в доп. материалах, без указания в заголовке и пр.
[Профиль]  [ЛС] 

Mordovian God

Top Seed 01* 40r

Стаж: 2 года 7 месяцев

Сообщений: 2189

Mordovian God · 20-Окт-18 22:27 (спустя 27 мин.)

[Цитировать] 

Любовь: Задание на лето (Алексей Нужный) [2014, короткометражка, комедия, WEB-DLRip]
Фильм о детском отдыхе в летнем лагере. Предлагаю перенести в Детские отечественные фильмы.
[Профиль]  [ЛС] 

komm zu mir

Помощник модератора

Стаж: 11 лет 1 месяц

Сообщений: 5087

komm zu mir · 21-Окт-18 08:49 (спустя 10 часов)

[Цитировать] 

готово
постер
http://rutracker.org/forum/viewtopic.php?t=3061571
Код:
[img=right]http://i3.fastpic.ru/big/2009/1023/89/fcbef1068e985b211093e96730efc889.jpg[/img]

http://rutracker.org/forum/viewtopic.php?t=2182609 - ссылка в описании
[Профиль]  [ЛС] 

Nanvel

VIP (Заслуженный)

Стаж: 11 лет 6 месяцев

Сообщений: 4383

Nanvel · 22-Окт-18 22:08 (спустя 1 день 13 часов)

[Цитировать] 

Готово
http://rutracker.org/forum/viewtopic.php?t=2336443
Код:
[URL=https://fastpic.ru/view/95/2018/1022/743ac00fc099f598111035b327af57b7.png.html][IMG]http://i95.fastpic.ru/thumb/2018/1022/b7/743ac00fc099f598111035b327af57b7.jpeg[/IMG][/URL] [URL=https://fastpic.ru/view/95/2018/1022/fd678799e0c69cfb9c0ad1bb7647f0cb.png.html][IMG]http://i95.fastpic.ru/thumb/2018/1022/cb/fd678799e0c69cfb9c0ad1bb7647f0cb.jpeg[/IMG][/URL] [URL=https://fastpic.ru/view/95/2018/1022/9cb3bca6aaa35882d3351a080a5faf54.png.html][IMG]http://i95.fastpic.ru/thumb/2018/1022/54/9cb3bca6aaa35882d3351a080a5faf54.jpeg[/IMG][/URL] [URL=https://fastpic.ru/view/95/2018/1022/_df25ca81e9fa14f8d344867cec3804e2.png.html][IMG]http://i95.fastpic.ru/thumb/2018/1022/e2/_df25ca81e9fa14f8d344867cec3804e2.jpeg[/IMG][/URL] [URL=https://fastpic.ru/view/95/2018/1022/5b67eb55a61d61785e4f2cde9c3b2e9b.png.html][IMG]http://i95.fastpic.ru/thumb/2018/1022/9b/5b67eb55a61d61785e4f2cde9c3b2e9b.jpeg[/IMG][/URL]
Постер
Код:
http://i3.fastpic.ru/big/2009/1023/4d/b996aabe6ee259e3a6b774f89ed66c4d.jpg
[Профиль]  [ЛС] 

komm zu mir

Помощник модератора

Стаж: 11 лет 1 месяц

Сообщений: 5087

komm zu mir · 24-Окт-18 22:19 (спустя 2 дня)

[Цитировать] 

Готово
http://rutracker.org/forum/viewtopic.php?t=4155549
скрытый текст
Код:
[spoiler="Скриншоты"]
[URL=https://fastpic.ru/view/92/2018/1023/34b98ddf7db627028facbe123bb08fb7.png.html][IMG]http://i92.fastpic.ru/thumb/2018/1023/b7/34b98ddf7db627028facbe123bb08fb7.jpeg[/IMG][/URL] [URL=https://fastpic.ru/view/92/2018/1023/8b6f936c056b4b500a284c1e2941dafd.png.html][IMG]http://i92.fastpic.ru/thumb/2018/1023/fd/8b6f936c056b4b500a284c1e2941dafd.jpeg[/IMG][/URL] [URL=https://fastpic.ru/view/92/2018/1023/3ccee9d9f25b3dcd9ebd884b5ec277d6.png.html][IMG]http://i92.fastpic.ru/thumb/2018/1023/d6/3ccee9d9f25b3dcd9ebd884b5ec277d6.jpeg[/IMG][/URL] [URL=https://fastpic.ru/view/92/2018/1023/61fb5aefb769e8cddd216c527876906d.png.html][IMG]http://i92.fastpic.ru/thumb/2018/1023/6d/61fb5aefb769e8cddd216c527876906d.jpeg[/IMG][/URL] [URL=https://fastpic.ru/view/92/2018/1023/c8f2ee213d3b3d6bd004db5e886d0c84.png.html][IMG]http://i92.fastpic.ru/thumb/2018/1023/84/c8f2ee213d3b3d6bd004db5e886d0c84.jpeg[/IMG][/URL] [URL=https://fastpic.ru/view/92/2018/1023/3aeae88c9317980bff777ee3501a2a01.png.html][IMG]http://i92.fastpic.ru/thumb/2018/1023/01/3aeae88c9317980bff777ee3501a2a01.jpeg[/IMG][/URL][/spoiler]
[Профиль]  [ЛС] 

Александр Макухин

Стаж: 8 лет 11 месяцев

Сообщений: 602


Александр Макухин · 25-Окт-18 13:32 (спустя 15 часов, ред. 25-Окт-18 14:34)

[Цитировать] 

скрытый текст
grandmajor писал(а):
76171768Александр Макухин
Не уверен, что офоромление DVD "Праздник Нептуна" нужно делать именно так.
"Санчо с ранчо" - это дополнительные материалы диска, а не основной материал. Это не фильм, а сериал, к тому же там указано, что только окончание сериала, а не весь. Так что достаточно упоминание о его наличии в доп. материалах, без указания в заголовке и пр.
Продолжительность фильма "Праздник Нептуна" не 01:34:22, а 00:43:15.
Хронометраж"Санчо с ранчо" на DVD 00:51:09,
Полный вариант Санчо с ранчо (Sancho us rancho) 01:10:56.
==========
Последний дюйм (Теодор Вульфович, Никита Курихин) 1958
Последний дюйм (Теодор Вульфович, Никита Курихин) [1958, Драма, DVD5] Ленфильм Видео
Код:
http://i94.fastpic.ru/big/2018/1025/72/0c8c244ac376a7c382356fb17a6aa372.jpg
Код:
[URL=https://fastpic.ru/view/93/2018/1025/_ff372ae37b1362267b35a310dffb5396.jpg.html][IMG]http://i93.fastpic.ru/thumb/2018/1025/96/_ff372ae37b1362267b35a310dffb5396.jpeg[/IMG][/URL][URL=https://fastpic.ru/view/92/2018/1025/04d7ac982043d15c8cbf348a96802577.jpg.html][IMG]http://i92.fastpic.ru/thumb/2018/1025/77/04d7ac982043d15c8cbf348a96802577.jpeg[/IMG][/URL] [URL=https://fastpic.ru/view/92/2018/1025/10ce7397490d709db84619ac5f5e4aec.jpg.html][IMG]http://i92.fastpic.ru/thumb/2018/1025/ec/10ce7397490d709db84619ac5f5e4aec.jpeg[/IMG][/URL] [URL=https://fastpic.ru/view/92/2018/1025/f915c39a09a7186169cc7610ae236ecd.jpg.html][IMG]http://i92.fastpic.ru/thumb/2018/1025/cd/f915c39a09a7186169cc7610ae236ecd.jpeg[/IMG][/URL] [URL=https://fastpic.ru/view/92/2018/1025/e2544dd121f2aaac03bde668d6f8846f.jpg.html][IMG]http://i92.fastpic.ru/thumb/2018/1025/6f/e2544dd121f2aaac03bde668d6f8846f.jpeg[/IMG][/URL] [URL=https://fastpic.ru/view/92/2018/1025/52658457fac659d3c53c5f7e862cf680.jpg.html][IMG]http://i92.fastpic.ru/thumb/2018/1025/80/52658457fac659d3c53c5f7e862cf680.jpeg[/IMG][/URL] [URL=https://fastpic.ru/view/92/2018/1025/7078cc280eb2c3a2b7cde1e0bad443b8.jpg.html][IMG]http://i92.fastpic.ru/thumb/2018/1025/b8/7078cc280eb2c3a2b7cde1e0bad443b8.jpeg[/IMG][/URL] [URL=https://fastpic.ru/view/92/2018/1025/2dc9363e7ff5823e0f7cf136924772de.jpg.html][IMG]http://i92.fastpic.ru/thumb/2018/1025/de/2dc9363e7ff5823e0f7cf136924772de.jpeg[/IMG][/URL] [URL=https://fastpic.ru/view/92/2018/1025/e3498f57963bdbc4048d374a4199443f.jpg.html][IMG]http://i92.fastpic.ru/thumb/2018/1025/3f/e3498f57963bdbc4048d374a4199443f.jpeg[/IMG][/URL] [URL=https://fastpic.ru/view/92/2018/1025/927865ebe6ccf05079ea3261b4a279d3.jpg.html][IMG]http://i92.fastpic.ru/thumb/2018/1025/d3/927865ebe6ccf05079ea3261b4a279d3.jpeg[/IMG][/URL] [URL=https://fastpic.ru/view/92/2018/1025/f67bad23b49c44418f07f7a5da087597.jpg.html][IMG]http://i92.fastpic.ru/thumb/2018/1025/97/f67bad23b49c44418f07f7a5da087597.jpeg[/IMG][/URL] [URL=https://fastpic.ru/view/92/2018/1025/e1eb1f18579b726438c4acd21cba84ec.jpg.html][IMG]http://i92.fastpic.ru/thumb/2018/1025/ec/e1eb1f18579b726438c4acd21cba84ec.jpeg[/IMG][/URL]
Академик Иван Павлов (Григорий Рошаль) 1949
Академик Иван Павлов (Григорий Рошаль) [1949, биографический, мелодрама, DVDRip]
Код:
http://i93.fastpic.ru/big/2018/1025/c4/244291f02335c3f7d22b75d83fa97fc4.jpg
Код:
[URL=https://fastpic.ru/view/95/2018/1025/1daea330a7454fc3c5a3ecd589d5451f.jpg.html][IMG]http://i95.fastpic.ru/thumb/2018/1025/1f/1daea330a7454fc3c5a3ecd589d5451f.jpeg[/IMG][/URL] [URL=https://fastpic.ru/view/95/2018/1025/574987efcefac79f215ec1e010ba8f84.jpg.html][IMG]http://i95.fastpic.ru/thumb/2018/1025/84/574987efcefac79f215ec1e010ba8f84.jpeg[/IMG][/URL] [URL=https://fastpic.ru/view/95/2018/1025/37d597404e272ee85a0c864b35b7f5da.jpg.html][IMG]http://i95.fastpic.ru/thumb/2018/1025/da/37d597404e272ee85a0c864b35b7f5da.jpeg[/IMG][/URL] [URL=https://fastpic.ru/view/95/2018/1025/6f94c0e15d813f452c1aa8ec48635f1d.jpg.html][IMG]http://i95.fastpic.ru/thumb/2018/1025/1d/6f94c0e15d813f452c1aa8ec48635f1d.jpeg[/IMG][/URL] [URL=https://fastpic.ru/view/95/2018/1025/9ffd0348c3052ac54b50a5c948736adf.jpg.html][IMG]http://i95.fastpic.ru/thumb/2018/1025/df/9ffd0348c3052ac54b50a5c948736adf.jpeg[/IMG][/URL] [URL=https://fastpic.ru/view/95/2018/1025/3d8848a10c9d4c062d5a60dfc65af8cf.jpg.html][IMG]http://i95.fastpic.ru/thumb/2018/1025/cf/3d8848a10c9d4c062d5a60dfc65af8cf.jpeg[/IMG][/URL] [URL=https://fastpic.ru/view/95/2018/1025/1726c25e30d3f6b4b09c8d13a84e673e.jpg.html][IMG]http://i95.fastpic.ru/thumb/2018/1025/3e/1726c25e30d3f6b4b09c8d13a84e673e.jpeg[/IMG][/URL] [URL=https://fastpic.ru/view/95/2018/1025/01bb4109700a51ec684ef5ca72a546c1.jpg.html][IMG]http://i95.fastpic.ru/thumb/2018/1025/c1/01bb4109700a51ec684ef5ca72a546c1.jpeg[/IMG][/URL] [URL=https://fastpic.ru/view/95/2018/1025/a4bf924658d7714d79843e45a70d2ffd.jpg.html][IMG]http://i95.fastpic.ru/thumb/2018/1025/fd/a4bf924658d7714d79843e45a70d2ffd.jpeg[/IMG][/URL] [URL=https://fastpic.ru/view/95/2018/1025/a8ec66a52d9fdf69531478855396689b.jpg.html][IMG]http://i95.fastpic.ru/thumb/2018/1025/9b/a8ec66a52d9fdf69531478855396689b.jpeg[/IMG][/URL]
Код:
General
Complete name                            : /media/2big-home/2Видео/2Фильмы/Отечественные/1/Akademik.Ivan.Pavlov.avi
Format                                   : AVI
Format/Info                              : Audio Video Interleave
Format profile                           : OpenDML
File size                                : 1.37 GiB
Duration                                 : 1 h 36 min
Overall bit rate                         : 2 043 kb/s
Video
ID                                       : 0
Format                                   : MPEG-4 Visual
Format settings                          : BVOP1
Format settings, BVOP                    : 1
Format settings, QPel                    : No
Format settings, GMC                     : No warppoints
Format settings, Matrix                  : Default (MPEG)
Muxing mode                              : Packed bitstream
Codec ID                                 : DX50
Codec ID/Hint                            : DivX 5
Duration                                 : 1 h 36 min
Bit rate                                 : 1 900 kb/s
Nominal bit rate                         : 4 854 kb/s
Width                                    : 704 pixels
Height                                   : 528 pixels
Display aspect ratio                     : 4:3
Frame rate                               : 25.000 FPS
Color space                              : YUV
Chroma subsampling                       : 4:2:0
Bit depth                                : 8 bits
Scan type                                : Progressive
Compression mode                         : Lossy
Bits/(Pixel*Frame)                       : 0.204
Stream size                              : 1.28 GiB (93%)
Writing library                          : DivX 6.8.5 (UTC 2009-08-20)
Audio
ID                                       : 1
Format                                   : MPEG Audio
Format version                           : Version 1
Format profile                           : Layer 3
Format settings                          : Joint stereo
Codec ID                                 : 55
Codec ID/Hint                            : MP3
Duration                                 : 1 h 36 min
Bit rate mode                            : Constant
Bit rate                                 : 128 kb/s
Channel(s)                               : 2 channels
Sampling rate                            : 48.0 kHz
Compression mode                         : Lossy
Stream size                              : 88.0 MiB (6%)
Alignment                                : Aligned on interleaves
Interleave, duration                     : 24  ms (0.60 video frame)
[Профиль]  [ЛС] 

komm zu mir

Помощник модератора

Стаж: 11 лет 1 месяц

Сообщений: 5087

komm zu mir · 25-Окт-18 13:44 (спустя 12 мин.)

[Цитировать] 

скрытый текст
http://rutracker.org/forum/viewtopic.php?t=134982
скрытый текст
Код:
[img=right]http://s001.radikal.ru/i196/1106/f8/eb7b31aec3cd.jpg[/img]
[Профиль]  [ЛС] 

komm zu mir

Помощник модератора

Стаж: 11 лет 1 месяц

Сообщений: 5087

komm zu mir · 29-Окт-18 21:51 (спустя 4 дня, ред. 29-Окт-18 21:51)

[Цитировать] 

еще описание поправил и кое-что еще. все в спойлере по ссылке выше


[Профиль]  [ЛС] 

Александр Макухин

Стаж: 8 лет 11 месяцев

Сообщений: 602


Александр Макухин · 01-Ноя-18 11:42 (спустя 2 дня 13 часов, ред. 01-Ноя-18 11:42)

[Цитировать] 

Зеркало для героя (Владимир Хотиненко) 1987 - с д е л а н о
Зеркало для героя (Владимир Хотиненко) [1987, Драма, DVD5]
Код:
http://i98.fastpic.ru/big/2018/1101/c1/0a5eca1f47794cb9740348d39ea49ec1.jpg
Зеркало для героя (В.Хотиненко) [1987, фантастика, драма, DVDRip]
Код:
http://i98.fastpic.ru/big/2018/1101/c1/0a5eca1f47794cb9740348d39ea49ec1.jpg
Код:
[URL=https://fastpic.ru/view/98/2018/1101/6d3228cb1a0d742e10b213267bde277d.jpg.html][IMG]http://i98.fastpic.ru/thumb/2018/1101/7d/6d3228cb1a0d742e10b213267bde277d.jpeg[/IMG][/URL] [URL=https://fastpic.ru/view/98/2018/1101/4f46de4598f1a5ce3b43d345a652755e.jpg.html][IMG]http://i98.fastpic.ru/thumb/2018/1101/5e/4f46de4598f1a5ce3b43d345a652755e.jpeg[/IMG][/URL] [URL=https://fastpic.ru/view/98/2018/1101/980dff0c553f517ec17b03c286f1b1b8.jpg.html][IMG]http://i98.fastpic.ru/thumb/2018/1101/b8/980dff0c553f517ec17b03c286f1b1b8.jpeg[/IMG][/URL] [URL=https://fastpic.ru/view/98/2018/1101/e17d15313366a09acc6a8e775624b2a7.jpg.html][IMG]http://i98.fastpic.ru/thumb/2018/1101/a7/e17d15313366a09acc6a8e775624b2a7.jpeg[/IMG][/URL] [URL=https://fastpic.ru/view/98/2018/1101/ae3a9b2a3f654eb548d0ce0a215fcacf.jpg.html][IMG]http://i98.fastpic.ru/thumb/2018/1101/cf/ae3a9b2a3f654eb548d0ce0a215fcacf.jpeg[/IMG][/URL] [URL=https://fastpic.ru/view/98/2018/1101/2989612b66bfede6c65d44791aaa6baa.jpg.html][IMG]http://i98.fastpic.ru/thumb/2018/1101/aa/2989612b66bfede6c65d44791aaa6baa.jpeg[/IMG][/URL] [URL=https://fastpic.ru/view/98/2018/1101/f06f7082cb0baf8fbda64c0204c794a7.jpg.html][IMG]http://i98.fastpic.ru/thumb/2018/1101/a7/f06f7082cb0baf8fbda64c0204c794a7.jpeg[/IMG][/URL] [URL=https://fastpic.ru/view/98/2018/1101/1de110b57f97a247167700a025009626.jpg.html][IMG]http://i98.fastpic.ru/thumb/2018/1101/26/1de110b57f97a247167700a025009626.jpeg[/IMG][/URL] [URL=https://fastpic.ru/view/98/2018/1101/33103edb79706f35b6f9b0f757516f18.jpg.html][IMG]http://i98.fastpic.ru/thumb/2018/1101/18/33103edb79706f35b6f9b0f757516f18.jpeg[/IMG][/URL]
Код:
General
Complete name                            : /media/2big-home/2Видео/2Фильмы/Отечественные/1/Зеркало для героя/Zerkalo.dlja.Geroya.1987.DivX.DVDRip.BestVideo.avi
Format                                   : AVI
Format/Info                              : Audio Video Interleave
Format profile                           : OpenDML
File size                                : 2.05 GiB
Duration                                 : 2 h 11 min
Overall bit rate                         : 2 235 kb/s
Writing application                      : VirtualDubMod 1.5.4.1 (build 2178/release)
Writing library                          : VirtualDubMod build 2178/release
Video
ID                                       : 0
Format                                   : MPEG-4 Visual
Format settings                          : BVOP1
Format settings, BVOP                    : 1
Format settings, QPel                    : No
Format settings, GMC                     : No warppoints
Format settings, Matrix                  : Default (H.263)
Muxing mode                              : Packed bitstream
Codec ID                                 : DX50
Codec ID/Hint                            : DivX 5
Duration                                 : 2 h 11 min
Bit rate                                 : 1 998 kb/s
Nominal bit rate                         : 4 854 kb/s
Width                                    : 688 pixels
Height                                   : 464 pixels
Display aspect ratio                     : 3:2
Frame rate                               : 25.000 FPS
Color space                              : YUV
Chroma subsampling                       : 4:2:0
Bit depth                                : 8 bits
Scan type                                : Progressive
Compression mode                         : Lossy
Bits/(Pixel*Frame)                       : 0.250
Stream size                              : 1.83 GiB (89%)
Writing library                          : DivX 6.8.3-6.8.4 (UTC 2008-06-07)
Audio
ID                                       : 1
Format                                   : AC-3
Format/Info                              : Audio Coding 3
Codec ID                                 : 2000
Duration                                 : 2 h 11 min
Bit rate mode                            : Constant
Bit rate                                 : 224 kb/s
Channel(s)                               : 2 channels
Channel positions                        : Front: L R
Sampling rate                            : 48.0 kHz
Frame rate                               : 31.250 FPS (1536 SPF)
Bit depth                                : 16 bits
Compression mode                         : Lossy
Stream size                              : 210 MiB (10%)
Alignment                                : Split accross interleaves
Interleave, duration                     : 40  ms (1.00 video frame)
Interleave, preload duration             : 500  ms
Service kind                             : Complete Main
[Профиль]  [ЛС] 

Mordovian God

Top Seed 01* 40r

Стаж: 2 года 7 месяцев

Сообщений: 2189

Mordovian God · 05-Ноя-18 20:01 (спустя 4 дня)

[Цитировать] 

http://rutracker.org/forum/viewtopic.php?t=5526882
Iggy73 писал(а):
74881662
на постере ссылка на сторонний ресурс
Iggy73 писал(а):
74881662Видео: 720x576
Iggy73 писал(а):
74881662
Скриншоты
при раскрытии в полный размер
ни один из скриншотов не соответствует заявленному разрешению
http://rutracker.org/forum/viewtopic.php?t=5525082
и здесь у него со скриншотами тоже самое
Iggy73 писал(а):
74856501Видео: 672x288
Iggy73 писал(а):
74856501
Скриншоты
при раскрытии в полный размер
ни один из скриншотов не соответствует заявленному разрешению
[Профиль]  [ЛС] 

Street_Lamps_Keeper

Фильмографы

Стаж: 8 лет 1 месяц

Сообщений: 1136

Street_Lamps_Keeper · 11-Ноя-18 04:15 (спустя 5 дней)

[Цитировать] 

[Профиль]  [ЛС] 

komm zu mir

Помощник модератора

Стаж: 11 лет 1 месяц

Сообщений: 5087

komm zu mir · 20-Ноя-18 19:37 (спустя 9 дней)

[Цитировать] 

[Профиль]  [ЛС] 

grandmajor

RG Мультфильмы

Стаж: 10 лет 3 месяца

Сообщений: 2854

grandmajor · 20-Ноя-18 19:49 (спустя 12 мин.)

[Цитировать] 

Mordovian God писал(а):
76265708на постере ссылка на сторонний ресурс
Цитата:
ни один из скриншотов не соответствует заявленному разрешению
Цитата:
и здесь у него со скриншотами тоже самое
Готов заменить на правильные постер и скриншоты, которые будут предложены взамен.
[Профиль]  [ЛС] 

Mordovian God

Top Seed 01* 40r

Стаж: 2 года 7 месяцев

Сообщений: 2189

Mordovian God · 23-Ноя-18 01:04 (спустя 2 дня 5 часов)

[Цитировать] 

grandmajor писал(а):
76356822заменить на правильные постер и скриншоты, которые будут предложены взамен

http://rutracker.org/forum/viewtopic.php?t=5526882
Код:
[img=right]https://i106.fastpic.ru/big/2018/1123/51/80f09faea42a456b44e50160fbeb8d51.jpg[/img]
Код:
[URL=https://fastpic.ru/view/106/2018/1123/84a474b138b90fe4b80aa01510e6a7a5.png.html][IMG]https://i106.fastpic.ru/thumb/2018/1123/a5/84a474b138b90fe4b80aa01510e6a7a5.jpeg[/IMG][/URL] [URL=https://fastpic.ru/view/106/2018/1123/65639fa1a4677e54312634511c180a0d.png.html][IMG]https://i106.fastpic.ru/thumb/2018/1123/0d/65639fa1a4677e54312634511c180a0d.jpeg[/IMG][/URL] [URL=https://fastpic.ru/view/106/2018/1123/331972e3a67fe666b5372c8203df0bcf.png.html][IMG]https://i106.fastpic.ru/thumb/2018/1123/cf/331972e3a67fe666b5372c8203df0bcf.jpeg[/IMG][/URL] [URL=https://fastpic.ru/view/106/2018/1123/acc7bcffba6390a5aaea6781f302f8fb.png.html][IMG]https://i106.fastpic.ru/thumb/2018/1123/fb/acc7bcffba6390a5aaea6781f302f8fb.jpeg[/IMG][/URL] [URL=https://fastpic.ru/view/106/2018/1123/87bd286798e6d109e27b40efdcc5c4b6.png.html][IMG]https://i106.fastpic.ru/thumb/2018/1123/b6/87bd286798e6d109e27b40efdcc5c4b6.jpeg[/IMG][/URL] [URL=https://fastpic.ru/view/106/2018/1123/1fd475520e2ce352b67347662da0a5f8.png.html][IMG]https://i106.fastpic.ru/thumb/2018/1123/f8/1fd475520e2ce352b67347662da0a5f8.jpeg[/IMG][/URL] [URL=https://fastpic.ru/view/106/2018/1123/15333f8f70c13400c289a1534203feca.png.html][IMG]https://i106.fastpic.ru/thumb/2018/1123/ca/15333f8f70c13400c289a1534203feca.jpeg[/IMG][/URL] [URL=https://fastpic.ru/view/106/2018/1123/65fc70023969f05d06da0a255fe0dc84.png.html][IMG]https://i106.fastpic.ru/thumb/2018/1123/84/65fc70023969f05d06da0a255fe0dc84.jpeg[/IMG][/URL] [URL=https://fastpic.ru/view/106/2018/1123/744d15ae927477be8a80f91ee67bb6c8.png.html][IMG]https://i106.fastpic.ru/thumb/2018/1123/c8/744d15ae927477be8a80f91ee67bb6c8.jpeg[/IMG][/URL] [URL=https://fastpic.ru/view/106/2018/1123/85489b1f37e047c941dd9092b9e5125c.png.html][IMG]https://i106.fastpic.ru/thumb/2018/1123/5c/85489b1f37e047c941dd9092b9e5125c.jpeg[/IMG][/URL] [URL=https://fastpic.ru/view/106/2018/1123/7d3d46b55549aaeeedf6675b334ddffd.png.html][IMG]https://i106.fastpic.ru/thumb/2018/1123/fd/7d3d46b55549aaeeedf6675b334ddffd.jpeg[/IMG][/URL]


http://rutracker.org/forum/viewtopic.php?t=5525082
Код:
[URL=https://fastpic.ru/view/106/2018/1123/84a474b138b90fe4b80aa01510e6a7a5.png.html][IMG]https://i106.fastpic.ru/thumb/2018/1123/a5/84a474b138b90fe4b80aa01510e6a7a5.jpeg[/IMG][/URL] [URL=https://fastpic.ru/view/106/2018/1123/65639fa1a4677e54312634511c180a0d.png.html][IMG]https://i106.fastpic.ru/thumb/2018/1123/0d/65639fa1a4677e54312634511c180a0d.jpeg[/IMG][/URL] [URL=https://fastpic.ru/view/106/2018/1123/331972e3a67fe666b5372c8203df0bcf.png.html][IMG]https://i106.fastpic.ru/thumb/2018/1123/cf/331972e3a67fe666b5372c8203df0bcf.jpeg[/IMG][/URL] [URL=https://fastpic.ru/view/106/2018/1123/acc7bcffba6390a5aaea6781f302f8fb.png.html][IMG]https://i106.fastpic.ru/thumb/2018/1123/fb/acc7bcffba6390a5aaea6781f302f8fb.jpeg[/IMG][/URL] [URL=https://fastpic.ru/view/106/2018/1123/87bd286798e6d109e27b40efdcc5c4b6.png.html][IMG]https://i106.fastpic.ru/thumb/2018/1123/b6/87bd286798e6d109e27b40efdcc5c4b6.jpeg[/IMG][/URL] [URL=https://fastpic.ru/view/106/2018/1123/1fd475520e2ce352b67347662da0a5f8.png.html][IMG]https://i106.fastpic.ru/thumb/2018/1123/f8/1fd475520e2ce352b67347662da0a5f8.jpeg[/IMG][/URL] [URL=https://fastpic.ru/view/106/2018/1123/15333f8f70c13400c289a1534203feca.png.html][IMG]https://i106.fastpic.ru/thumb/2018/1123/ca/15333f8f70c13400c289a1534203feca.jpeg[/IMG][/URL] [URL=https://fastpic.ru/view/106/2018/1123/65fc70023969f05d06da0a255fe0dc84.png.html][IMG]https://i106.fastpic.ru/thumb/2018/1123/84/65fc70023969f05d06da0a255fe0dc84.jpeg[/IMG][/URL] [URL=https://fastpic.ru/view/106/2018/1123/744d15ae927477be8a80f91ee67bb6c8.png.html][IMG]https://i106.fastpic.ru/thumb/2018/1123/c8/744d15ae927477be8a80f91ee67bb6c8.jpeg[/IMG][/URL] [URL=https://fastpic.ru/view/106/2018/1123/85489b1f37e047c941dd9092b9e5125c.png.html][IMG]https://i106.fastpic.ru/thumb/2018/1123/5c/85489b1f37e047c941dd9092b9e5125c.jpeg[/IMG][/URL] [URL=https://fastpic.ru/view/106/2018/1123/7d3d46b55549aaeeedf6675b334ddffd.png.html][IMG]https://i106.fastpic.ru/thumb/2018/1123/fd/7d3d46b55549aaeeedf6675b334ddffd.jpeg[/IMG][/URL]
[Профиль]  [ЛС] 

grandmajor

RG Мультфильмы

Стаж: 10 лет 3 месяца

Сообщений: 2854

grandmajor · 23-Ноя-18 21:51 (спустя 20 часов)

[Цитировать] 

Mordovian God
Спасибо.
Постер к Степану Кольчугину заменен. А скришоты-то не от него.
[Профиль]  [ЛС] 

Mordovian God

Top Seed 01* 40r

Стаж: 2 года 7 месяцев

Сообщений: 2189

Mordovian God · 24-Ноя-18 00:18 (спустя 2 часа 26 мин.)

[Цитировать] 

grandmajor писал(а):
76373783Постер к Степану Кольчугину заменен. А скриншоты-то не от него
Торопился я, торопился... почти (с)
Теперь от него!
Код:
[URL=https://fastpic.ru/view/108/2018/1124/26a2617327b0481e60c1861650087643.png.html][IMG]https://i108.fastpic.ru/thumb/2018/1124/43/26a2617327b0481e60c1861650087643.jpeg[/IMG][/URL] [URL=https://fastpic.ru/view/108/2018/1124/8aae2fad6eee733cf8c53bd4d779aae7.png.html][IMG]https://i108.fastpic.ru/thumb/2018/1124/e7/8aae2fad6eee733cf8c53bd4d779aae7.jpeg[/IMG][/URL] [URL=https://fastpic.ru/view/108/2018/1124/b067014dea393a91e20313609886ba80.png.html][IMG]https://i108.fastpic.ru/thumb/2018/1124/80/b067014dea393a91e20313609886ba80.jpeg[/IMG][/URL] [URL=https://fastpic.ru/view/108/2018/1124/ec22b7ba9f6291cbebf47b35f1913c03.png.html][IMG]https://i108.fastpic.ru/thumb/2018/1124/03/ec22b7ba9f6291cbebf47b35f1913c03.jpeg[/IMG][/URL] [URL=https://fastpic.ru/view/108/2018/1124/aacb61c4819dac4dbcf4f4e78787b8ad.png.html][IMG]https://i108.fastpic.ru/thumb/2018/1124/ad/aacb61c4819dac4dbcf4f4e78787b8ad.jpeg[/IMG][/URL] [URL=https://fastpic.ru/view/108/2018/1124/fc4acf932965d46a080528a4f1379300.png.html][IMG]https://i108.fastpic.ru/thumb/2018/1124/00/fc4acf932965d46a080528a4f1379300.jpeg[/IMG][/URL] [URL=https://fastpic.ru/view/108/2018/1124/6d5092dd0587d085b29175a278428afa.png.html][IMG]https://i108.fastpic.ru/thumb/2018/1124/fa/6d5092dd0587d085b29175a278428afa.jpeg[/IMG][/URL] [URL=https://fastpic.ru/view/108/2018/1124/05db605b955ddd4035eec947bd4be794.png.html][IMG]https://i108.fastpic.ru/thumb/2018/1124/94/05db605b955ddd4035eec947bd4be794.jpeg[/IMG][/URL] [URL=https://fastpic.ru/view/108/2018/1124/180bfe7ebcbb220834c768c70c24d810.png.html][IMG]https://i108.fastpic.ru/thumb/2018/1124/10/180bfe7ebcbb220834c768c70c24d810.jpeg[/IMG][/URL] [URL=https://fastpic.ru/view/108/2018/1124/8f8d4bfdeb87877c77c75790bfb67330.png.html][IMG]https://i108.fastpic.ru/thumb/2018/1124/30/8f8d4bfdeb87877c77c75790bfb67330.jpeg[/IMG][/URL] [URL=https://fastpic.ru/view/108/2018/1124/eb2426e7363c98b05956741c62809a85.png.html][IMG]https://i108.fastpic.ru/thumb/2018/1124/85/eb2426e7363c98b05956741c62809a85.jpeg[/IMG][/URL]
[Профиль]  [ЛС] 

grandmajor

RG Мультфильмы

Стаж: 10 лет 3 месяца

Сообщений: 2854

grandmajor · 24-Ноя-18 14:12 (спустя 13 часов)

[Цитировать] 

Mordovian God
Теперь Ok )
[Профиль]  [ЛС] 

OGORODNIKOFFF

Стаж: 4 года 2 месяца

Сообщений: 622

OGORODNIKOFFF · 25-Ноя-18 01:52 (спустя 11 часов)

[Цитировать] 

Сделано
http://rutracker.org/forum/viewtopic.php?t=3174079
AviInfo
File: Беги без оглядки.avi
FileSize: 745.80 Mb ( 782 032 896 bytes )
Play length: 02:01:34.799 (174900 frames)
Subtitles: Not Present
Video: 720x304 (2.37:1), 23.976 fps, XviD build 50 ~721 kbps avg, 0.14 bit/pixel
Audio: 48 kHz, MPEG Layer 3, 2 ch, ~122.42 kbps avg
MediaInfo
Общее
Полное имя : T:\Беги без оглядки.avi
Формат : AVI
Формат/Информация : Audio Video Interleave
Размер файла : 746 Мбайт
Продолжительность : 2 ч. 1 м.
Режим общего битрейта : Переменный
Общий поток : 858 Кбит/сек
Программа кодирования : VirtualDubMod 1.5.10.2 (build 2540/release)
Библиотека кодирования : VirtualDubMod build 2540/release
Видео
Идентификатор : 0
Формат : MPEG-4 Visual
Профиль формата : Advanced [email protected]
Настройки формата : BVOP1
Параметр BVOP формата : 1
Параметр QPel формата : Нет
Параметр GMC формата : Без точки перехода
Параметр матрицы формата : Default (MPEG)
Идентификатор кодека : XVID
Идентификатор кодека/Подсказка : XviD
Продолжительность : 2 ч. 1 м.
Битрейт : 722 Кбит/сек
Ширина : 720 пикселей
Высота : 304 пикселя
Соотношение сторон : 2,35:1
Частота кадров : 23,976 (24000/1001) кадра/сек
Цветовое пространство : YUV
Субдискретизация насыщенности : 4:2:0
Битовая глубина : 8 бит
Тип развёртки : Прогрессивная
Метод сжатия : С потерями
Бит/(Пиксели*Кадры) : 0.138
Размер потока : 628 Мбайт (84%)
Библиотека кодирования : XviD 1.2.1 (UTC 2008-12-04)
Аудио
Идентификатор : 1
Формат : MPEG Audio
Версия формата : Version 1
Профиль формата : Layer 3
Идентификатор кодека : 55
Идентификатор кодека/Подсказка : MP3
Продолжительность : 2 ч. 1 м.
Вид битрейта : Переменный
Битрейт : 128 Кбит/сек
Каналы : 2 канала
Частота : 48,0 КГц
Метод сжатия : С потерями
Размер потока : 107 Мбайт (14%)
Выравнивание : Соединение по промежуткам
Продолжительность промежутка : 24 мс. (0,58 видеокадр)
Время предзагрузки промежутка : 150 мс.
Библиотека кодирования : LAME3.98r
Настройки программы : -m s -V 4 -q 2 -lowpass 17 --abr 128
Постер
Код:
[img=right]https://i107.fastpic.ru/big/2018/1125/a5/fb87f1cd08117023eaa5c4fb569cb9a5.jpg[/img]
Скриншоты
Код:
[URL=https://fastpic.ru/view/107/2018/1125/e2877b18980afaf2276bb01c3bcd737f.png.html][IMG]https://i107.fastpic.ru/thumb/2018/1125/7f/e2877b18980afaf2276bb01c3bcd737f.jpeg[/IMG][/URL]
[URL=https://fastpic.ru/view/107/2018/1125/80fa0a7f4dbfb0d0a00eb761bb3bc3e4.png.html][IMG]https://i107.fastpic.ru/thumb/2018/1125/e4/80fa0a7f4dbfb0d0a00eb761bb3bc3e4.jpeg[/IMG][/URL] [URL=https://fastpic.ru/view/107/2018/1125/55f2591daee88ad8d03c8c68a21094aa.png.html][IMG]https://i107.fastpic.ru/thumb/2018/1125/aa/55f2591daee88ad8d03c8c68a21094aa.jpeg[/IMG][/URL] [URL=https://fastpic.ru/view/107/2018/1125/92d88a074312c695e3bfa054ec98c096.png.html][IMG]https://i107.fastpic.ru/thumb/2018/1125/96/92d88a074312c695e3bfa054ec98c096.jpeg[/IMG][/URL] [URL=https://fastpic.ru/view/107/2018/1125/538b6fc7c8e70a417191b859898129d8.png.html][IMG]https://i107.fastpic.ru/thumb/2018/1125/d8/538b6fc7c8e70a417191b859898129d8.jpeg[/IMG][/URL] [URL=https://fastpic.ru/view/107/2018/1125/65309354a21369a20dc3cc5fbe134a61.png.html][IMG]https://i107.fastpic.ru/thumb/2018/1125/61/65309354a21369a20dc3cc5fbe134a61.jpeg[/IMG][/URL] [URL=https://fastpic.ru/view/107/2018/1125/15879c604f00a07dc670f9543aa6949f.png.html][IMG]https://i107.fastpic.ru/thumb/2018/1125/9f/15879c604f00a07dc670f9543aa6949f.jpeg[/IMG][/URL] [URL=https://fastpic.ru/view/107/2018/1125/d85041a5b1d61f0fabd0007303a442ea.png.html][IMG]https://i107.fastpic.ru/thumb/2018/1125/ea/d85041a5b1d61f0fabd0007303a442ea.jpeg[/IMG][/URL] [URL=https://fastpic.ru/view/107/2018/1125/981f2639ed2c0c3df6418827c402141d.png.html][IMG]https://i107.fastpic.ru/thumb/2018/1125/1d/981f2639ed2c0c3df6418827c402141d.jpeg[/IMG][/URL] [URL=https://fastpic.ru/view/107/2018/1125/24ffd103e0329b6358af182b2d9c7445.png.html][IMG]https://i107.fastpic.ru/thumb/2018/1125/45/24ffd103e0329b6358af182b2d9c7445.jpeg[/IMG][/URL] [URL=https://fastpic.ru/view/107/2018/1125/d5fa8cce3a6505837ed03c9b25f7cbfa.png.html][IMG]https://i107.fastpic.ru/thumb/2018/1125/fa/d5fa8cce3a6505837ed03c9b25f7cbfa.jpeg[/IMG][/URL]
[Профиль]  [ЛС] 

<VIRUS>

VIP (Заслуженный)

Стаж: 10 лет 8 месяцев

Сообщений: 7306

<VIRUS> · 25-Ноя-18 06:43 (спустя 4 часа, ред. 25-Ноя-18 06:43)

[Цитировать] 

OGORODNIKOFFF писал(а):
76381275Аудио
Идентификатор : 1
Формат : MPEG Audio
Версия формата : Version 1
Профиль формата : Layer 3
Идентификатор кодека : 55
Идентификатор кодека/Подсказка : MP3
...
Вид битрейта : Переменный
#
[Профиль]  [ЛС] 

grandmajor

RG Мультфильмы

Стаж: 10 лет 3 месяца

Сообщений: 2854

grandmajor · 25-Ноя-18 12:09 (спустя 5 часов)

[Цитировать] 

<VIRUS> писал(а):
76381743#
Ну, да, если бы раздаче не 8 лет было, то сомнительно.
[Профиль]  [ЛС] 

komm zu mir

Помощник модератора

Стаж: 11 лет 1 месяц

Сообщений: 5087

komm zu mir · 03-Дек-18 16:04 (спустя 8 дней)

[Цитировать] 

http://rutracker.org/forum/viewtopic.php?p=76432390#76432390
http://rutracker.org/forum/viewtopic.php?p=76432367#76432367
[Профиль]  [ЛС] 

grandmajor

RG Мультфильмы

Стаж: 10 лет 3 месяца

Сообщений: 2854

grandmajor · 03-Дек-18 19:28 (спустя 3 часа)

[Цитировать] 

komm zu mir
Спасибо.
Хотя в первом вроде бы живые скриншоты.
[Профиль]  [ЛС] 

<VIRUS>

VIP (Заслуженный)

Стаж: 10 лет 8 месяцев

Сообщений: 7306

<VIRUS> · 07-Дек-18 17:19 (спустя 3 дня, ред. 07-Дек-18 17:19)

[Цитировать] 

Сделано
http://rutracker.org/forum/viewtopic.php?t=3568522
Скриншоты:
Серия 1
Серия 2
Серия 3
Код
Код:
[spoiler="Серия 1"]
[url=https://i5.imageban.ru/out/2018/12/07/454e2d6d2d43bd82b728f9b685cd573e.png][img]https://i4.imageban.ru/out/2018/12/07/a77dc2c97d66639900397defaa44efa2.png[/img][/url]  [url=https://i5.imageban.ru/out/2018/12/07/e0907951eda906ca4f44fc629542c669.png][img]https://i5.imageban.ru/out/2018/12/07/020253ee37da63c1e7f1a3012d5ad47b.png[/img][/url]  [url=https://i3.imageban.ru/out/2018/12/07/1aa1a62835c591914947bf61041ed1a1.png][img]https://i3.imageban.ru/out/2018/12/07/45cf74679368c9e665452a6650dbb431.png[/img][/url]  [url=https://i2.imageban.ru/out/2018/12/07/fe3672671b8d15207ca59aea3955b605.png][img]https://i5.imageban.ru/out/2018/12/07/b48038896d1eb7d19f8b3a7d1f61b01a.png[/img][/url]
[url=https://i5.imageban.ru/out/2018/12/07/dda4aa09a6ad91ee1ad3ea4a68215137.png][img]https://i4.imageban.ru/out/2018/12/07/ea9450800e99d265deebc939b1876795.png[/img][/url]  [url=https://i4.imageban.ru/out/2018/12/07/1c82a8612a11679ac9cc0bb55a5fbc88.png][img]https://i2.imageban.ru/out/2018/12/07/6dac92c33575908f2c8ea8e4bb316f9a.png[/img][/url]  [url=https://i1.imageban.ru/out/2018/12/07/d016538bd8e8feecdb114662b6509336.png][img]https://i1.imageban.ru/out/2018/12/07/f3942a3be524f8f0974a1fb8c2fc91a1.png[/img][/url]  [url=https://i2.imageban.ru/out/2018/12/07/70e9f235ffd8251de0dd30ac01099029.png][img]https://i1.imageban.ru/out/2018/12/07/940230067543cacc830b21639c6c0eef.png[/img][/url]
[/spoiler]
[spoiler="Серия 2"]
[url=https://i1.imageban.ru/out/2018/12/07/714eae28e1a22a54ddee3309a0652e04.png][img]https://i3.imageban.ru/out/2018/12/07/83a1687bbfa33b0b6d48307ab5354de3.png[/img][/url]  [url=https://i5.imageban.ru/out/2018/12/07/0a7ee286cb41a2f3fc1a3f4997a6259b.png][img]https://i5.imageban.ru/out/2018/12/07/cfb4f94583340eb40957f91e17de9fd4.png[/img][/url]  [url=https://i2.imageban.ru/out/2018/12/07/4580f3a893088c048f509688125d0c1b.png][img]https://i5.imageban.ru/out/2018/12/07/91cb5ee2e7c384ae7bbfb27fdbab95dd.png[/img][/url]  [url=https://i1.imageban.ru/out/2018/12/07/864e617c910ba328d3ba9d213bacee0b.png][img]https://i5.imageban.ru/out/2018/12/07/0a420f9349da57c1265d84e2aed80fd0.png[/img][/url]
[url=https://i3.imageban.ru/out/2018/12/07/8da4c9bf01f1cb36438c4318d18a3580.png][img]https://i4.imageban.ru/out/2018/12/07/90c3280399b03dd8de1e017a9616a1e8.png[/img][/url]  [url=https://i2.imageban.ru/out/2018/12/07/5fc64be2b0d4078d0fe5e81b92431a9f.png][img]https://i2.imageban.ru/out/2018/12/07/273b999679185b3e48e0af09a3a17898.png[/img][/url]  [url=https://i3.imageban.ru/out/2018/12/07/cbf30b6c16a98969d47e6ed4d0ad5d71.png][img]https://i5.imageban.ru/out/2018/12/07/debffcbf6088343328827bbf1959954d.png[/img][/url]  [url=https://i3.imageban.ru/out/2018/12/07/2675b74f23e94af5ff5a6b47cf942d4f.png][img]https://i5.imageban.ru/out/2018/12/07/d00c17ebb1fa8a684846c97e4b6086ad.png[/img][/url]
[/spoiler]
[spoiler="Серия 3"]
[url=https://i4.imageban.ru/out/2018/12/07/813610e8e65d06ebe0c0f4c4d4249edb.png][img]https://i2.imageban.ru/out/2018/12/07/30a15a9f6a4be10bf4063989b140f1a7.png[/img][/url]  [url=https://i6.imageban.ru/out/2018/12/07/5e21b898506af8581840f5764bd0549f.png][img]https://i1.imageban.ru/out/2018/12/07/5575ec726ceba98f12f455278b180d99.png[/img][/url]  [url=https://i6.imageban.ru/out/2018/12/07/61e4d589286b8a26062a47722367cb63.png][img]https://i2.imageban.ru/out/2018/12/07/a3ca3adea32e5ccd1417b4a32345c647.png[/img][/url]  [url=https://i4.imageban.ru/out/2018/12/07/d695c451c5bffd9e65e91dd2f4b508fa.png][img]https://i6.imageban.ru/out/2018/12/07/8216d67d92b192eb579b01db1d45c009.png[/img][/url]
[url=https://i6.imageban.ru/out/2018/12/07/b500e5d6847a2b3014f479332d32e795.png][img]https://i4.imageban.ru/out/2018/12/07/cba5c2ca050d0143400bdd8020a132bf.png[/img][/url]  [url=https://i3.imageban.ru/out/2018/12/07/e7fd5ab036b04edf13d726133478b45c.png][img]https://i6.imageban.ru/out/2018/12/07/8e8aa97477e3b1fa7fa573cfacce526f.png[/img][/url]  [url=https://i3.imageban.ru/out/2018/12/07/b8c968360a38927716c6123d06aa31ec.png][img]https://i6.imageban.ru/out/2018/12/07/ba6891c16763be2713587a9065892868.png[/img][/url]  [url=https://i6.imageban.ru/out/2018/12/07/4d07f305fdb699a089f4f9080a1c9ee0.png][img]https://i6.imageban.ru/out/2018/12/07/d1f59e0ea2458643c787d411a46065de.png[/img][/url]
[/spoiler]
[Профиль]  [ЛС] 

GCRaistlin

Стаж: 11 лет 2 месяца

Сообщений: 3386

GCRaistlin · 13-Дек-18 21:52 (спустя 6 дней)

[Цитировать] 

http://rutracker.org/forum/viewtopic.php?t=3815028
Цитата:
Жить / Huozhe / Lifetimes / Living / To Live (Чжан Имоу / Yimou Zhang) [1994, Китай, драма, DVDRip] MVO + Original Chi + Sub Rus, Eng
http://rutracker.org/forum/viewtopic.php?t=2986332
Цитата:
Голоса / Some Voices (Саймон Селлан Джоунс / Simon Cellan Jones) [2000, Великобритания, комедия, драма, DVDRip] DVO + Original Eng
[Профиль]  [ЛС] 
 
Ответить
Loading...
Error