Planet Earth in Lounge Music - Vol.10 Pulse [2003, Lounge, Chillout, New Age, Relax, DVD5]

Страницы:  1

Ответить
Автор
Сообщение

Master-daO

Top Seed 03* 160r

Стаж: 10 лет 5 месяцев

Сообщений: 1405

Master-daO · 13-Сен-10 02:06 (8 лет 10 месяцев назад, ред. 06-Ноя-10 23:07)

Planet Earth in Lounge Music - Vol.10 Pulse Год выпуска: 2003
Страна: WARM-UP SA
Жанр: Lounge, Chillout, New Age, Relax
Продолжительность: 53:06
Описание: Коллекция фильмов “Planet Earth in Lounge Music” предлагает уникальную возможность насладиться прекрасной музыкой и завораживающими своей красотой картинами природы.
Треклист:
01 ... CHILL BOSSA FORA MADEMOISELLE ... (Hecho)
02 ... DELIGHTED IN CHILLAROMAS ... (Hecho)
03 ... CHILLAWAY FORA WHILE ... (Hecho)
04 ... AGNUS DEI ... (Hecho)
05 ... THE SMOOTH LACING OFYOUR BODICE ... (Hecho)
06 ... FLAKES OF BOSSA-NOVA ... (Hecho)
07 ... ACOOLACOUSTIC STROLL ... (Hecho)
08 ... LIGHTLY COME, LIGHTLY GO ... (Hecho)
09 ... YOUR IMPLICITE FAITH IN THE FLOW AND EBB ... (Hecho)
10 ... THE EXPELLING JOY PARALLELS ... (Hecho)
11 ... BAD TOTAL MIX ... (P.Balestrieri)
12 ... AMBIENT FLUIDE ... (E.Reyss)
13 ... THAEL US ... (E.Reyss)
14 ... GENIE C ... (N.Jacques)
15 ... AN UNFORESEEN TRAVERSE OF FLUTE ... (Hecho) outro
Доп. информация: Восхитительные уголки европейской природы, от суровых северных морей Норвегии до живописных южных побережий Португалии, таинственные пещеры, величественные горы, многоцветные альпийские луга Швейцарии, красивейшие водопады, реки и озёра Финляндии – всё это лишь малая часть того, что Вы сможете увидеть в фильмах серии “Planet Earth. Lounge Music”. Главной особенностью этой серии является великолепно подобранная современная музыка, которая является такой же важной составляющей фильма, как и видео.
Музыкальные композиции в стилях Lounge, Chillout, New Age, Relax прекрасно дополняют красочный видеоряд и создают особое эмоциональное настроение, позволяющее почувствовать и оценить неповторимый колорит окружающего мира, ощутить радость жизни, совершить удивительное путешествие не только по самым красивым уголкам нашей планеты, но и в волшебный мир музыки. Каждый из десяти фильмов серии несёт в себе определённый эмоциональный настрой, который помогают раскрыть специально подобранные видеосюжеты и музыкальное сопровождение.
Пред. просмотр
DVDInfo

General
Complete name : H:\Planet Earth. Lounge Music\Planet Earth. Lounge Music Vol.10 Pulse\VIDEO_TS\VTS_01_1.VOB
Format : MPEG-PS
File size : 1 024 MiB
Duration : 21mn 47s
Overall bit rate : 6 568 Kbps
Video
ID : 224 (0xE0)
Format : MPEG Video
Format version : Version 2
Format profile : [email protected]
Format settings, BVOP : Yes
Format settings, Matrix : Default
Duration : 21mn 47s
Bit rate mode : Constant
Bit rate : 6 000 Kbps
Width : 720 pixels
Height : 576 pixels
Display aspect ratio : 4:3
Frame rate : 25.000 fps
Standard : PAL
Color space : YUV
Chroma subsampling : 4:2:0
Bit depth : 8 bits
Scan type : Interlaced
Scan order : Bottom Field First
Bits/(Pixel*Frame) : 0.579
Stream size : 934 MiB (91%)
Audio
ID : 128 (0x80)
Format : AC-3
Format/Info : Audio Coding 3
Mode extension : CM (complete main)
Duration : 21mn 47s
Bit rate mode : Constant
Bit rate : 448 Kbps
Channel(s) : 6 channels
Channel positions : Front: L C R, Side: L R, LFE
Sampling rate : 48.0 KHz
Bit depth : 16 bits
Stream size : 69.8 MiB (7%)
Качество: DVD5
Формат: DVD Video
Видео кодек: MPEG2
Аудио кодек: AC3
Видео: PAL 4:3 (720x576) Constant 25.000 fps 6 000 Kbps
Аудио: (Dolby Digital 5.1) 48.0 KHz 448 Kbps 16 bits
В этой серии



ПОХОЖЕЕ <> Pure Earth DVD1 <> Pure Earth DVD2 <> ВИДЕО
Download
Для скачивания .torrent файлов необходима регистрация
Сайт не распространяет и не хранит электронные версии произведений, а лишь предоставляет доступ к создаваемому пользователями каталогу ссылок на торрент-файлы, которые содержат только списки хеш-сумм
[Профиль]  [ЛС] 

Master-daO

Top Seed 03* 160r

Стаж: 10 лет 5 месяцев

Сообщений: 1405

Master-daO · 14-Сен-10 08:52 (спустя 1 день 6 часов)

[Профиль]  [ЛС] 

Evet

Стаж: 8 лет 10 месяцев

Сообщений: 18


Evet · 19-Июл-12 16:42 (спустя 1 год 10 месяцев)

Ну почему нельзя было сделать dvdrip?
[Профиль]  [ЛС] 

Bezkartuza

Стаж: 7 лет 7 месяцев

Сообщений: 38


Bezkartuza · 22-Июл-12 22:20 (спустя 3 дня)

Автор сотвори DVD-Rip! Сделай доброе дело, ты же можешь!
[Профиль]  [ЛС] 
 
Ответить
Loading...
Error