(Mainstream, Bop, Swing, Live) The Concord All Stars - OW! (Jazz festival in Japan'87; Scott Hamilton, Dave McKenna, Ed Bickert, Red Holloway, Ernestine Anderson, etc.) - 1988, FLAC (image+.cue), lossless

Страницы:  1

Ответить
Автор
Сообщение

p201

Стаж: 11 лет 1 месяц

Сообщений: 238

p201 · 14-Дек-09 15:42 (9 лет 7 месяцев назад, ред. 16-Дек-09 08:32)

The Concord All Stars - OW! (Jazz festival in Japan'87)
Жанр: Mainstream, Bop, Swing, Live
Год выпуска диска: 1988
Производитель диска: USA
Аудио кодек: FLAC
Тип рипа: image+.cue
Битрейт аудио: lossless
Продолжительность: 55:34
Трэклист:
1. Ow
2. Fungi Mama
3. My Shining Hour
4. I'll Close My Eyes
5. Why Did I Choose You?
6. Blue Hodge
7. I Love Being Here With You
8. All Blues
9. Down Home Blues
10. Tenderly
Доп. информация:
Dan Barret - trombone
Ed Bickert - guitar
Scott Hamilton - tenor saxophone
Red Holloway - alto & tenor saxophones
Dave McKenna - piano
Jimmie Smith - drums
Warren Vache - cornet
Steve Wallace - bass
Ernestine Anderson - vocals
log
Exact Audio Copy V0.99 prebeta 5 from 4. May 2009
Отчёт EAC об извлечении, выполненном 14. декабря 2009, 14:39
The concord all stars / Ow!
Дисковод: SONY DVD RW DRU-190S Adapter: 2 ID: 0
Режим чтения : Достоверность
Использование точного потока : Да
Отключение кэша аудио : Да
Использование указателей C2 : Нет
Коррекция смещения при чтении : 6
Способность читать области Lead-in и Lead-out : Нет
Заполнение пропущенных сэмплов тишиной : Да
Удаление блоков с тишиной в начале и конце : Нет
При вычислениях CRC использовались нулевые сэмплы : Да
Интерфейс : Установленный внешний ASPI-интерфейс
Выходной формат : Внутренние WAV-операции
Формат сэмплов : 44.100 Гц; 16 бит; стерео
TOC извлечённого CD
Трек | Старт | Длительность | Начальный сектор | Конечный сектор
---------------------------------------------------------------------
1 | 0:00.00 | 9:37.72 | 0 | 43346
2 | 9:37.72 | 2:54.13 | 43347 | 56409
3 | 12:32.10 | 7:22.40 | 56410 | 89599
4 | 19:54.50 | 4:26.10 | 89600 | 109559
5 | 24:20.60 | 4:57.67 | 109560 | 131901
6 | 29:18.52 | 5:47.73 | 131902 | 157999
7 | 35:06.50 | 4:12.62 | 158000 | 176961
8 | 39:19.37 | 3:41.15 | 176962 | 193551
9 | 43:00.52 | 7:03.58 | 193552 | 225334
10 | 50:04.35 | 5:30.10 | 225335 | 250094
Характеристики диапазона извлечения и сообщения об ошибках
Выбранный диапазон
Имя файла C:\Users\Ku\Documents\American Jazz Philharmonic\The International Tchaikovsky Competition Laureats - Piano 2..wav\The concord all stars - Ow!\The concord all stars - Ow!.wav
Пиковый уровень 100.0 %
Качество диапазона 99.9 %
CRC копии D6982E05
Копирование... OK
Ошибок не произошло
AccurateRip: сводка
Трек 1 нет в базе данных
Трек 2 нет в базе данных
Трек 3 нет в базе данных
Трек 4 нет в базе данных
Трек 5 нет в базе данных
Трек 6 нет в базе данных
Трек 7 нет в базе данных
Трек 8 нет в базе данных
Трек 9 нет в базе данных
Трек 10 нет в базе данных
Ни одного трека нет в базе AccurateRip
Конец отчёта
Download
Для скачивания .torrent файлов необходима регистрация
Сайт не распространяет и не хранит электронные версии произведений, а лишь предоставляет доступ к создаваемому пользователями каталогу ссылок на торрент-файлы, которые содержат только списки хеш-сумм
[Профиль]  [ЛС] 
 
Ответить
Loading...
Error