Конвертация DVD to XviD/x264 с помощью AutoMKV

Страницы :   Пред.  1, 2, 3 ... 15, 16, 17

Ответить
Автор
Сообщение

Deep_-13

Стаж: 8 лет 8 месяцев

Сообщений: 155

Deep_-13 · 07-Дек-12 20:08 (5 лет 11 месяцев назад, ред. 08-Дек-12 00:10)

[Цитировать] 

а что такое add to queue и для чего он?
[Профиль]  [ЛС] 

munstero

Стаж: 7 лет 11 месяцев

Сообщений: 4


munstero · 25-Дек-12 10:39 (спустя 17 дней, ред. 26-Дек-12 07:43)

[Цитировать] 

День добрый. Я новичек и только разбираюсь. нужна помощь
есть видеоролик
скрытый текст
Общее
Полное имя : D:\Начало видеокурса.mp4
Формат : MPEG-4
Профиль формата : Base Media / Version 2
Идентификатор кодека : mp42
Размер файла : 404 Мбайт
Продолжительность : 15 м.
Режим общего битрейта : Переменный
Общий поток : 3707 Кбит/сек
Дата кодирования : UTC 2012-09-18 17:30:11
Дата пометки : UTC 2012-09-18 17:30:11
gsst : 0
gstd : 913565
gssd : B4A7DD8C4MH1348393385932876
gshh : r4---sn-cg.c.youtube.com
Видео
Идентификатор : 1
Формат : AVC
Формат/Информация : Advanced Video Codec
Профиль формата : [email protected]
Параметр CABAC формата : Да
Параметр ReFrames формата : 1 кадр
Параметр GOP формата : M=1, N=50
Идентификатор кодека : avc1
Идентификатор кодека/Информация : Advanced Video Coding
Продолжительность : 15 м.
Битрейт : 3513 Кбит/сек
Максимальный битрейт : 5523 Кбит/сек
Ширина : 1920 пикселей
Высота : 1080 пикселей
Соотношение сторон : 16:9
Режим частоты кадров : Постоянный
Частота кадров : 25,000 кадров/сек
Цветовое пространство : YUV
Субдискретизация насыщенности : 4:2:0
Битовая глубина : 8 бит
Тип развёртки : Прогрессивная
Бит/(Пиксели*Кадры) : 0.068
Размер потока : 382 Мбайт (95%)
Дата пометки : UTC 2012-09-18 17:31:07
Аудио
Идентификатор : 2
Формат : AAC
Формат/Информация : Advanced Audio Codec
Профиль формата : LC
Идентификатор кодека : 40
Продолжительность : 15 м.
Вид битрейта : Переменный
Битрейт : 192 Кбит/сек
Максимальный битрейт : 202 Кбит/сек
Каналы : 2 канала
Расположение каналов : Front: L R
Частота : 44,1 КГц
Метод сжатия : С потерями
Размер потока : 20,9 Мбайт (5%)
Заголовок : IsoMedia File Produced by Google, 5-11-2011
Дата кодирования : UTC 2012-09-18 17:30:58
Дата пометки : UTC 2012-09-18 17:31:07
У ролика длинной в 15 минут очень большой размер в 400 метров. Да и снят он в большом разрешении, что не требуется. размер кадра также хотел уменьшить до HD720 (1280x720 точек)
Я рассчитывал перекодировать в 264 с сохранением в mkv и за счет этого получить меньший размер. Спустя час мучений и поисков нашел и поставил и диструбутив AutoMKV и VirtualDubMod. Все это даже запускается при попытке Encoding
ругается
Unable to determine movie properties , switched to DirectShowSource
00:49:16 Unable to determine movie properties with DirectShowSource, switched to FFVideoSource
00:49:16 Unable to determine movie properties with FFVideoSource. Now analyzing with MediaInfo
в соседней теме мне показали что ролик уже в AVC/264, но отчего такой большой размер.
Вопросы: 1) на что ругается программа AutoMKV
2) как уменьшить размер, многовато это. уменьшить битрейт? до каких значений. есть какие нибудь формулы/ примеры должных расчетов.
Дубль2:
перенес ради интереса в папку с менее коротким именем. что то пошло, но обломилось
скрытый текст
21:47:05 0.98.3 - - - - - - - - - - - - - START JOBS - - - - - - - - - - - - - -
21:47:05 Selected Input file: D:\AutoMKV\incoming.mp4
21:47:05 Selected Output dir: D:\AutoMKV\temp\
21:47:05 Selected Final Name: incoming
21:47:05 Selected Container type: MKV
21:47:05 Selected Encoder: X264
21:47:05 Selected Size: Don't care about size / 1
21:47:05 Selected Profile: 2_Pass_Balanced.xml
21:47:05 Selected Resizer: SimpleResize (neutral soft) / 720
21:47:05 Selected Filters: RemoveGrain(mode=2)
21:47:05 Selected Deinterlacer: AUTO
21:47:05 Selected Field Order: AUTO
21:47:05 Track Language 1: Stream #0.1(und): Audio: aac
21:47:05 Audio Codec 1: Nero AAC
21:47:05 Audio Quality 1: 0.35
21:47:05 Audio Channel 1: Stereo
21:47:05 Track Language 2: NONE
21:47:05 Audio Codec 2: Nero AAC
21:47:05 Advanced Audio Settings DUMP Track 1
21:47:05 Nero Option Profiles: AUTO --- Encoding Mode: Quality
21:47:05 CCT Option Profiles: AUTO --- Channel Options: AUTO
21:47:05 Lame Settings: ABR
21:47:05 Audio Normalization: 1
21:47:05 Frequency: AUTO --- Tempo: NONE --- Pitch: NONE --- Other Add:
21:47:05
21:47:05 Extracting audio track 1 Stream #0.1(und): Audio: aac with ffmpeg
21:47:05 Unable to determine movie properties , switched to DirectShowSource
21:47:06 Unable to determine movie properties with DirectShowSource, switched to FFVideoSource
21:47:06 Unable to determine movie properties with FFVideoSource. Now analyzing with MediaInfo
21:47:06 Aspect ratio: 16:9
21:47:06 Number of Frames:
21:47:06 Framerate: 25.000
21:47:06 Movie length in Seconds: 1
21:47:06 Movie Width/Height: 1920/1080
21:47:06 Number of Frames:
21:47:06 Framerate: 25.000
21:47:06 Movie length in Seconds: 1
21:47:06 Movie Width/Height: 1920/1080
21:47:06 Number of Frames:
21:47:06 Framerate: 25.000
21:47:06 Movie length in Seconds: 1
21:47:06 Movie Width/Height: 1920/1080
21:47:06 Source is hybrid bff and tff at 0 bff and 0 tff.
21:47:06 Advanced Deinterlace Routines Log
21:47:06 Analyzed 0 sections of five frames
21:47:06 Found Interlace Sections: 0 -1.#J%
21:47:06 Found Progressive Sections:0 -1.#J%
21:47:06 Found Telecined Sections: 0 -1.#J%
21:47:06 Found Zero Mov: -1.#J% 0
21:47:06 Found One Mov: -1.#J% 0
21:47:06 Found Two Mov: -1.#J% 0
21:47:06 Found Three Mov: -1.#J% 0
21:47:06 Found Four Mov: -1.#J% 0
21:47:06 Found Five Mov: -1.#J% 0
21:47:06 Starting X264
21:47:06 Command Line 1' Pass X264: d:\AutoMKV\exe\encoder\x264.exe --pass 1 --bitrate 268167024 --stats "D:\AutoMKV\temp\.stats" --ref 1 --progress --keyint 250 --bframes 3 --qpmin 10 --qpmax 51 --no-psnr --filter -1,-1 --subme 2 --direct auto --vbv-bufsize 14000 --vbv-maxrate 25000 --me dia --no-ssim --level 4.0 --b-adapt 2 --no-chroma-me --partitions none --threads auto --thread-input --aud --aq-mode 1 --aq-strength 1 --psy-rd 1.1:1.0 --sar 1:1 --output NUL "D:\AutoMKV\temp\movie.avs"
21:47:06 Command Line 2' Pass X264: d:\AutoMKV\exe\encoder\x264.exe --pass 2 --bitrate 268167024 --stats "D:\AutoMKV\temp\.stats" --progress --keyint 250 --bframes 3 --qpmin 10 --qpmax 51 --no-psnr --ref 3 --filter -1,-1 --subme 9 --direct auto --vbv-bufsize 14000 --vbv-maxrate 25000 --me umh --no-ssim --level 4.0 --weightb --b-adapt 2 --no-chroma-me --8x8dct --threads auto --thread-input --aud --aq-mode 1 --aq-strength 1 --psy-rd 1.1:1.0 --sar 1:1 --output "D:\AutoMKV\temp\movie.264" "D:\AutoMKV\temp\movie.avs"
21:47:06 Finished 1' Pass X264
21:47:06 Only Movie Size: 0 bytes
21:47:07 BREAK ! FILE NOT SUPPORTED ! LAST TRY WITH FFMPEG!
21:47:07 Switched to FFmpeg for Video Encoding!
21:47:07 FFmpeg.exe String: "d:\AutoMKV\exe\BeSweet\ffmpeg.exe" -an -pass 1 -r 25.000 -threads 4 -i "D:\AutoMKV\incoming.mp4" -vcodec libx264 -bf 3 -b 268167020544 -s 720x400 -an -deblockalpha -1 -deblockbeta -1 -directpred 2 -refs 3 -subq 8 -mixed_refs -dct8x8 -o -y "D:\AutoMKV\temp\movie.mp4"
21:47:07 FFmpeg.exe String: "d:\AutoMKV\exe\BeSweet\ffmpeg.exe" -an -pass 2 -r 25.000 -threads 4 -i "D:\AutoMKV\incoming.mp4" -vcodec libx264 -bf 3 -b 268167020544 -s 720x400 -an -deblockalpha -1 -deblockbeta -1 -directpred 2 -refs 3 -subq 8 -mixed_refs -dct8x8 -o -y "D:\AutoMKV\temp\movie.mp4"
21:47:07 Fished FFmpeg Encoding!
21:47:07 "d:\AutoMKV\exe\matroska\mkvmerge.exe" -o "D:\AutoMKV\temp\incoming.mkv" --default-duration 0:25000/1000fps --track-name -1:"incoming" --aspect-ratio -1:1.000000 "D:\AutoMKV\temp\movie.264" --language -1:und --default-track -1:yes "D:\AutoMKV\temp\" --title "Done with AutoMKV 0.98.3 http://forum.doom9.org/showthread.php?t=140178 "
21:47:07 Final Muxed size: -1 bytes
21:47:07 Encoding finished: 00:00:01 elapsed time
21:47:07 -----------------------------------------------------------------------
21:47:07 Script movie.avs
21:47:07
21:47:07 #loadpluginstart
21:47:07
21:47:07 #test1
21:47:07
21:47:07 #importstart
21:47:07
21:47:07 #test2
21:47:07
21:47:07 movie = FFVideoSource("D:\AutoMKV\incoming.mp4",seekmode=0)
21:47:07 movie = isRGB(movie) ? ConvertToYV12(movie) : movie
21:47:07 movie = isYUY2(movie) ? ConvertToYV12(movie) : movie
21:47:07 movie = AssumeFPS(movie,25,1)
21:47:07 function getOrder(clip c) {
21:47:07 order = GetParity(c) ? 1 : 0
21:47:07 Return order }
21:47:07 #filter1start
21:47:07
21:47:07 #test3
21:47:07
21:47:07 last=movie
21:47:07 fixed_aspect = 1.000000
21:47:07 out_width = 720
21:47:07 out_height = 720
21:47:07 #resizestart
21:47:07
21:47:07 #test4
21:47:07
21:47:07 SimpleResize(out_width,out_height)
21:47:07 #filter2start
21:47:07
21:47:07 #test5
21:47:07
21:47:07 RemoveGrain(mode=2)
21:47:07
21:47:07 - - - - - - - - - - - - FINISHED JOBS - - - - - - - - - - - - - - - - -
Дубль3: Avisynth надо было установить. а в инструкции про это ни слова!
Радует глаз плавный процесс кодирования. жду с нетерпением результат..
я так понимаю за ответом на мой вопрос по размеру битретйу мне следовало бы пойти на Как выбрать оптимальный битрейт и ключевые параметры для рипа в x264 , но что то там слишком замудрено..
Дубль4: Пока кодируется видео прочел все страницы ветки и выяснилось что программа "признана устаревшей и с августа 2008 года не обнавляется ". Хоть бы написали на что стоит обратить внимание. что так сказать является приемником. Зацепило описание XviD4PSP - универсальный медиаконвертер
третий вечер а результата все нет (
Дубль 5: Кодирование прервалось.в папке Temp вижу movie.264 на 700 метров. 2 вопроса для тех кто сможет подсказать:
1) почему прервалось и 2) что занимает так много времени? правильно ли я понял, что у меня ушло только 40 минут на анализ а нужен ли интерлейсинг?
скрытый текст
21:47:05 0.98.3 - - - - - - - - - - - - - START JOBS - - - - - - - - - - - - - -
21:47:05 Selected Input file: D:\AutoMKV\incoming.mp4
21:47:05 Selected Output dir: D:\AutoMKV\temp\
21:47:05 Selected Final Name: incoming
21:47:05 Selected Container type: MKV
21:47:05 Selected Encoder: X264
21:47:05 Selected Size: Don't care about size / 1
21:47:05 Selected Profile: 2_Pass_Balanced.xml
21:47:05 Selected Resizer: SimpleResize (neutral soft) / 720
21:47:05 Selected Filters: RemoveGrain(mode=2)
21:47:05 Selected Deinterlacer: AUTO
21:47:05 Selected Field Order: AUTO
21:47:05 Track Language 1: Stream #0.1(und): Audio: aac
21:47:05 Audio Codec 1: Nero AAC
21:47:05 Audio Quality 1: 0.35
21:47:05 Audio Channel 1: Stereo
21:47:05 Track Language 2: NONE
21:47:05 Audio Codec 2: Nero AAC
21:47:05 Advanced Audio Settings DUMP Track 1
21:47:05 Nero Option Profiles: AUTO --- Encoding Mode: Quality
21:47:05 CCT Option Profiles: AUTO --- Channel Options: AUTO
21:47:05 Lame Settings: ABR
21:47:05 Audio Normalization: 1
21:47:05 Frequency: AUTO --- Tempo: NONE --- Pitch: NONE --- Other Add:
21:47:05
21:47:05 Extracting audio track 1 Stream #0.1(und): Audio: aac with ffmpeg
21:47:05 Unable to determine movie properties , switched to DirectShowSource
21:47:06 Unable to determine movie properties with DirectShowSource, switched to FFVideoSource
21:47:06 Unable to determine movie properties with FFVideoSource. Now analyzing with MediaInfo
21:47:06 Aspect ratio: 16:9
21:47:06 Number of Frames:
21:47:06 Framerate: 25.000
21:47:06 Movie length in Seconds: 1
21:47:06 Movie Width/Height: 1920/1080
21:47:06 Number of Frames:
21:47:06 Framerate: 25.000
21:47:06 Movie length in Seconds: 1
21:47:06 Movie Width/Height: 1920/1080
21:47:06 Number of Frames:
21:47:06 Framerate: 25.000
21:47:06 Movie length in Seconds: 1
21:47:06 Movie Width/Height: 1920/1080
21:47:06 Source is hybrid bff and tff at 0 bff and 0 tff.
21:47:06 Advanced Deinterlace Routines Log
21:47:06 Analyzed 0 sections of five frames
21:47:06 Found Interlace Sections: 0 -1.#J%
21:47:06 Found Progressive Sections:0 -1.#J%
21:47:06 Found Telecined Sections: 0 -1.#J%
21:47:06 Found Zero Mov: -1.#J% 0
21:47:06 Found One Mov: -1.#J% 0
21:47:06 Found Two Mov: -1.#J% 0
21:47:06 Found Three Mov: -1.#J% 0
21:47:06 Found Four Mov: -1.#J% 0
21:47:06 Found Five Mov: -1.#J% 0
21:47:06 Starting X264
21:47:06 Command Line 1' Pass X264: d:\AutoMKV\exe\encoder\x264.exe --pass 1 --bitrate 268167024 --stats "D:\AutoMKV\temp\.stats" --ref 1 --progress --keyint 250 --bframes 3 --qpmin 10 --qpmax 51 --no-psnr --filter -1,-1 --subme 2 --direct auto --vbv-bufsize 14000 --vbv-maxrate 25000 --me dia --no-ssim --level 4.0 --b-adapt 2 --no-chroma-me --partitions none --threads auto --thread-input --aud --aq-mode 1 --aq-strength 1 --psy-rd 1.1:1.0 --sar 1:1 --output NUL "D:\AutoMKV\temp\movie.avs"
21:47:06 Command Line 2' Pass X264: d:\AutoMKV\exe\encoder\x264.exe --pass 2 --bitrate 268167024 --stats "D:\AutoMKV\temp\.stats" --progress --keyint 250 --bframes 3 --qpmin 10 --qpmax 51 --no-psnr --ref 3 --filter -1,-1 --subme 9 --direct auto --vbv-bufsize 14000 --vbv-maxrate 25000 --me umh --no-ssim --level 4.0 --weightb --b-adapt 2 --no-chroma-me --8x8dct --threads auto --thread-input --aud --aq-mode 1 --aq-strength 1 --psy-rd 1.1:1.0 --sar 1:1 --output "D:\AutoMKV\temp\movie.264" "D:\AutoMKV\temp\movie.avs"
21:47:06 Finished 1' Pass X264
21:47:06 Only Movie Size: 0 bytes
21:47:07 BREAK ! FILE NOT SUPPORTED ! LAST TRY WITH FFMPEG!
21:47:07 Switched to FFmpeg for Video Encoding!
21:47:07 FFmpeg.exe String: "d:\AutoMKV\exe\BeSweet\ffmpeg.exe" -an -pass 1 -r 25.000 -threads 4 -i "D:\AutoMKV\incoming.mp4" -vcodec libx264 -bf 3 -b 268167020544 -s 720x400 -an -deblockalpha -1 -deblockbeta -1 -directpred 2 -refs 3 -subq 8 -mixed_refs -dct8x8 -o -y "D:\AutoMKV\temp\movie.mp4"
21:47:07 FFmpeg.exe String: "d:\AutoMKV\exe\BeSweet\ffmpeg.exe" -an -pass 2 -r 25.000 -threads 4 -i "D:\AutoMKV\incoming.mp4" -vcodec libx264 -bf 3 -b 268167020544 -s 720x400 -an -deblockalpha -1 -deblockbeta -1 -directpred 2 -refs 3 -subq 8 -mixed_refs -dct8x8 -o -y "D:\AutoMKV\temp\movie.mp4"
21:47:07 Fished FFmpeg Encoding!
21:47:07 "d:\AutoMKV\exe\matroska\mkvmerge.exe" -o "D:\AutoMKV\temp\incoming.mkv" --default-duration 0:25000/1000fps --track-name -1:"incoming" --aspect-ratio -1:1.000000 "D:\AutoMKV\temp\movie.264" --language -1:und --default-track -1:yes "D:\AutoMKV\temp\" --title "Done with AutoMKV 0.98.3 http://forum.doom9.org/showthread.php?t=140178 "
21:47:07 Final Muxed size: -1 bytes
21:47:07 Encoding finished: 00:00:01 elapsed time
21:47:07 -----------------------------------------------------------------------
21:47:07 Script movie.avs
21:47:07
21:47:07 #loadpluginstart
21:47:07
21:47:07 #test1
21:47:07
21:47:07 #importstart
21:47:07
21:47:07 #test2
21:47:07
21:47:07 movie = FFVideoSource("D:\AutoMKV\incoming.mp4",seekmode=0)
21:47:07 movie = isRGB(movie) ? ConvertToYV12(movie) : movie
21:47:07 movie = isYUY2(movie) ? ConvertToYV12(movie) : movie
21:47:07 movie = AssumeFPS(movie,25,1)
21:47:07 function getOrder(clip c) {
21:47:07 order = GetParity(c) ? 1 : 0
21:47:07 Return order }
21:47:07 #filter1start
21:47:07
21:47:07 #test3
21:47:07
21:47:07 last=movie
21:47:07 fixed_aspect = 1.000000
21:47:07 out_width = 720
21:47:07 out_height = 720
21:47:07 #resizestart
21:47:07
21:47:07 #test4
21:47:07
21:47:07 SimpleResize(out_width,out_height)
21:47:07 #filter2start
21:47:07
21:47:07 #test5
21:47:07
21:47:07 RemoveGrain(mode=2)
21:47:07
21:47:07 - - - - - - - - - - - - FINISHED JOBS - - - - - - - - - - - - - - - - -
21:52:39 0.98.3 - - - - - - - - - - - - - START JOBS - - - - - - - - - - - - - -
21:52:39 Selected Input file: D:\AutoMKV\incoming.mp4
21:52:39 Selected Output dir: D:\AutoMKV\temp\
21:52:39 Selected Final Name: incoming
21:52:39 Selected Container type: MKV
21:52:39 Selected Encoder: X264
21:52:39 Selected Size: Don't care about size / 1
21:52:39 Selected Profile: 2_Pass_Balanced.xml
21:52:39 Selected Resizer: SimpleResize (neutral soft) / 720
21:52:39 Selected Filters: RemoveGrain(mode=2)
21:52:39 Selected Deinterlacer: AUTO
21:52:39 Selected Field Order: AUTO
21:52:39 Track Language 1: NONE
21:52:39 Audio Codec 1: Copy Original
21:52:39 Track Language 2: NONE
21:52:39 Audio Codec 2: Nero AAC
21:52:39
21:52:39 Extracting audio track 0 NONE with ffmpeg
21:52:39 Unable to determine movie properties , switched to DirectShowSource
21:52:39 Unable to determine movie properties with DirectShowSource, switched to FFVideoSource
21:52:40 Unable to determine movie properties with FFVideoSource. Now analyzing with MediaInfo
21:52:40 Aspect ratio: 16:9
21:52:40 Number of Frames:
21:52:40 Framerate: 25.000
21:52:40 Movie length in Seconds: 1
21:52:40 Movie Width/Height: 1920/1080
21:52:40 Number of Frames:
21:52:40 Framerate: 25.000
21:52:40 Movie length in Seconds: 1
21:52:40 Movie Width/Height: 1920/1080
21:52:40 Number of Frames:
21:52:40 Framerate: 25.000
21:52:40 Movie length in Seconds: 1
21:52:40 Movie Width/Height: 1920/1080
21:52:40 Source is hybrid bff and tff at 0 bff and 0 tff.
21:52:40 Advanced Deinterlace Routines Log
21:52:40 Analyzed 0 sections of five frames
21:52:40 Found Interlace Sections: 0 -1.#J%
21:52:40 Found Progressive Sections:0 -1.#J%
21:52:40 Found Telecined Sections: 0 -1.#J%
21:52:40 Found Zero Mov: -1.#J% 0
21:52:40 Found One Mov: -1.#J% 0
21:52:40 Found Two Mov: -1.#J% 0
21:52:40 Found Three Mov: -1.#J% 0
21:52:40 Found Four Mov: -1.#J% 0
21:52:40 Found Five Mov: -1.#J% 0
21:52:40 Starting X264
21:52:40 Command Line 1' Pass X264: d:\AutoMKV\exe\encoder\x264.exe --pass 1 --bitrate 268167024 --stats "D:\AutoMKV\temp\.stats" --ref 1 --progress --keyint 250 --bframes 3 --qpmin 10 --qpmax 51 --no-psnr --filter -1,-1 --subme 2 --direct auto --vbv-bufsize 14000 --vbv-maxrate 25000 --me dia --no-ssim --level 4.0 --b-adapt 2 --no-chroma-me --partitions none --threads auto --thread-input --aud --aq-mode 1 --aq-strength 1 --psy-rd 1.1:1.0 --sar 1:1 --output NUL "D:\AutoMKV\temp\movie.avs"
21:52:40 Command Line 2' Pass X264: d:\AutoMKV\exe\encoder\x264.exe --pass 2 --bitrate 268167024 --stats "D:\AutoMKV\temp\.stats" --progress --keyint 250 --bframes 3 --qpmin 10 --qpmax 51 --no-psnr --ref 3 --filter -1,-1 --subme 9 --direct auto --vbv-bufsize 14000 --vbv-maxrate 25000 --me umh --no-ssim --level 4.0 --weightb --b-adapt 2 --no-chroma-me --8x8dct --threads auto --thread-input --aud --aq-mode 1 --aq-strength 1 --psy-rd 1.1:1.0 --sar 1:1 --output "D:\AutoMKV\temp\movie.264" "D:\AutoMKV\temp\movie.avs"
21:52:40 Finished 1' Pass X264
21:52:40 Only Movie Size: 0 bytes
21:52:40 BREAK ! FILE NOT SUPPORTED ! LAST TRY WITH FFMPEG!
21:52:40 Switched to FFmpeg for Video Encoding!
21:52:40 FFmpeg.exe String: "d:\AutoMKV\exe\BeSweet\ffmpeg.exe" -an -pass 1 -r 25.000 -threads 4 -i "D:\AutoMKV\incoming.mp4" -vcodec libx264 -bf 3 -b 268167020544 -s 720x400 -an -deblockalpha -1 -deblockbeta -1 -directpred 2 -refs 3 -subq 8 -mixed_refs -dct8x8 -o -y "D:\AutoMKV\temp\movie.mp4"
21:52:40 FFmpeg.exe String: "d:\AutoMKV\exe\BeSweet\ffmpeg.exe" -an -pass 2 -r 25.000 -threads 4 -i "D:\AutoMKV\incoming.mp4" -vcodec libx264 -bf 3 -b 268167020544 -s 720x400 -an -deblockalpha -1 -deblockbeta -1 -directpred 2 -refs 3 -subq 8 -mixed_refs -dct8x8 -o -y "D:\AutoMKV\temp\movie.mp4"
21:52:41 Fished FFmpeg Encoding!
21:52:41 "d:\AutoMKV\exe\matroska\mkvmerge.exe" -o "D:\AutoMKV\temp\incoming.mkv" --default-duration 0:25000/1000fps --track-name -1:"incoming" --aspect-ratio -1:1.000000 "D:\AutoMKV\temp\movie.264" --title "Done with AutoMKV 0.98.3 http://forum.doom9.org/showthread.php?t=140178 "
21:52:41 Final Muxed size: -1 bytes
21:52:41 Encoding finished: 00:00:01 elapsed time
21:52:41 -----------------------------------------------------------------------
21:52:41 Script movie.avs
21:52:41
21:52:41 #loadpluginstart
21:52:41
21:52:41 #test1
21:52:41
21:52:41 #importstart
21:52:41
21:52:41 #test2
21:52:41
21:52:41 movie = FFVideoSource("D:\AutoMKV\incoming.mp4",seekmode=0)
21:52:41 movie = isRGB(movie) ? ConvertToYV12(movie) : movie
21:52:41 movie = isYUY2(movie) ? ConvertToYV12(movie) : movie
21:52:41 movie = AssumeFPS(movie,25,1)
21:52:41 function getOrder(clip c) {
21:52:41 order = GetParity(c) ? 1 : 0
21:52:41 Return order }
21:52:41 #filter1start
21:52:41
21:52:41 #test3
21:52:41
21:52:41 last=movie
21:52:41 fixed_aspect = 1.000000
21:52:41 out_width = 720
21:52:41 out_height = 720
21:52:41 #resizestart
21:52:41
21:52:41 #test4
21:52:41
21:52:41 SimpleResize(out_width,out_height)
21:52:41 #filter2start
21:52:41
21:52:41 #test5
21:52:41
21:52:41 RemoveGrain(mode=2)
21:52:41
21:52:41 - - - - - - - - - - - - FINISHED JOBS - - - - - - - - - - - - - - - - -
21:53:36 0.98.4 - - - - - - - - - - - - - START JOBS - - - - - - - - - - - - - -
21:53:36 Selected Input file: D:\AutoMKV\incoming.mp4
21:53:36 Selected Output dir: D:\AutoMKV\temp\
21:53:36 Selected Final Name: incoming
21:53:36 Selected Container type: MKV
21:53:36 Selected Encoder: X264
21:53:36 Selected Size: 1 CD / 1
21:53:36 Selected Profile: 2_Pass_Balanced.xml
21:53:36 Selected Resizer: NONE / Original
21:53:36 Selected Filters: RemoveGrain(mode=2)
21:53:36 Selected Deinterlacer: AUTO
21:53:36 Selected Field Order: AUTO
21:53:36 Track Language 1: NONE
21:53:36 Audio Codec 1: Nero AAC
21:53:36 Track Language 2: NONE
21:53:37 Audio Codec 2: Nero AAC
21:53:37
21:53:37 Extracting audio track 0 NONE with ffmpeg
21:53:37 Unable to determine movie properties , switched to DirectShowSource
21:53:37 Unable to determine movie properties with DirectShowSource, switched to FFVideoSource
21:53:37 Unable to determine movie properties with FFVideoSource. Now analyzing with MediaInfo
21:53:37 Aspect ratio: 16:9
21:53:37 Number of Frames:
21:53:37 Framerate: 25.000
21:53:37 Movie length in Seconds: 1
21:53:37 Movie Width/Height: 1920/1080
21:53:37 Number of Frames:
21:53:37 Framerate: 25.000
21:53:37 Movie length in Seconds: 1
21:53:37 Movie Width/Height: 1920/1080
21:53:37 Number of Frames:
21:53:37 Framerate: 25.000
21:53:37 Movie length in Seconds: 1
21:53:37 Movie Width/Height: 1920/1080
21:53:37 Source is hybrid bff and tff at 0 bff and 0 tff.
21:53:37 Advanced Deinterlace Routines Log
21:53:37 Analyzed 0 sections of five frames
21:53:37 Found Interlace Sections: 0 -1.#J%
21:53:37 Found Progressive Sections:0 -1.#J%
21:53:37 Found Telecined Sections: 0 -1.#J%
21:53:37 Found Zero Mov: -1.#J% 0
21:53:37 Found One Mov: -1.#J% 0
21:53:37 Found Two Mov: -1.#J% 0
21:53:37 Found Three Mov: -1.#J% 0
21:53:37 Found Four Mov: -1.#J% 0
21:53:37 Found Five Mov: -1.#J% 0
21:53:37 Starting X264
21:53:37 Command Line 1' Pass X264: d:\AutoMKV\exe\encoder\x264.exe --pass 1 --bitrate 5866154 --stats "D:\AutoMKV\temp\.stats" --ref 1 --progress --keyint 250 --bframes 3 --qpmin 10 --qpmax 51 --no-psnr --filter -1,-1 --subme 2 --direct auto --vbv-bufsize 14000 --vbv-maxrate 25000 --me dia --no-ssim --level 4.0 --b-adapt 2 --no-chroma-me --partitions none --threads auto --thread-input --aud --aq-mode 1 --aq-strength 1 --psy-rd 1.1:1.0 --sar 1:1 --output NUL "D:\AutoMKV\temp\movie.avs"
21:53:37 Command Line 2' Pass X264: d:\AutoMKV\exe\encoder\x264.exe --pass 2 --bitrate 5866154 --stats "D:\AutoMKV\temp\.stats" --progress --keyint 250 --bframes 3 --qpmin 10 --qpmax 51 --no-psnr --ref 3 --filter -1,-1 --subme 9 --direct auto --vbv-bufsize 14000 --vbv-maxrate 25000 --me umh --no-ssim --level 4.0 --weightb --b-adapt 2 --no-chroma-me --8x8dct --threads auto --thread-input --aud --aq-mode 1 --aq-strength 1 --psy-rd 1.1:1.0 --sar 1:1 --output "D:\AutoMKV\temp\movie.264" "D:\AutoMKV\temp\movie.avs"
21:53:37 Finished 1' Pass X264
21:53:38 Only Movie Size: 0 bytes
21:53:38 BREAK ! FILE NOT SUPPORTED ! LAST TRY WITH FFMPEG!
21:53:38 Switched to FFmpeg for Video Encoding!
21:53:38 FFmpeg.exe String: "d:\AutoMKV\exe\BeSweet\ffmpeg.exe" -an -pass 1 -r 25.000 -threads 4 -i "D:\AutoMKV\incoming.mp4" -vcodec libx264 -bf 3 -b 5866153984 -s 1920x1080 -an -deblockalpha -1 -deblockbeta -1 -directpred 2 -refs 3 -subq 8 -mixed_refs -dct8x8 -o -y "D:\AutoMKV\temp\movie.mp4"
21:53:38 FFmpeg.exe String: "d:\AutoMKV\exe\BeSweet\ffmpeg.exe" -an -pass 2 -r 25.000 -threads 4 -i "D:\AutoMKV\incoming.mp4" -vcodec libx264 -bf 3 -b 5866153984 -s 1920x1080 -an -deblockalpha -1 -deblockbeta -1 -directpred 2 -refs 3 -subq 8 -mixed_refs -dct8x8 -o -y "D:\AutoMKV\temp\movie.mp4"
21:53:38 Fished FFmpeg Encoding!
21:53:38 "d:\AutoMKV\exe\matroska\mkvmerge.exe" -o "D:\AutoMKV\temp\incoming.mkv" --default-duration 0:25000/1000fps --track-name -1:"incoming" --aspect-ratio -1:1.777778 "D:\AutoMKV\temp\movie.264" --title "Done with AutoMKV 0.98.4 http://forum.doom9.org/showthread.php?t=140178 "
21:53:38 Final Muxed size: -1 bytes
21:53:38 Encoding finished: 00:00:01 elapsed time
21:53:38 -----------------------------------------------------------------------
21:53:38 Script movie.avs
21:53:38
21:53:38 #loadpluginstart
21:53:38
21:53:38 #test1
21:53:38
21:53:38 #importstart
21:53:38
21:53:38 #test2
21:53:38
21:53:38 movie = FFVideoSource("D:\AutoMKV\incoming.mp4",seekmode=0)
21:53:38 movie = isRGB(movie) ? ConvertToYV12(movie) : movie
21:53:38 movie = isYUY2(movie) ? ConvertToYV12(movie) : movie
21:53:38 movie = AssumeFPS(movie,25,1)
21:53:38 function getOrder(clip c) {
21:53:38 order = GetParity(c) ? 1 : 0
21:53:38 Return order }
21:53:38 #filter1start
21:53:38
21:53:38 #test3
21:53:38
21:53:38 last = movie
21:53:38 fixed_aspect = 1.000000
21:53:38 out_width = 1920
21:53:38 out_height = 1080
21:53:38 #resizestart
21:53:38
21:53:38 #test4
21:53:38
21:53:38 #filter2start
21:53:38
21:53:38 #test5
21:53:38
21:53:38 RemoveGrain(mode=2)
21:53:38
21:53:38 - - - - - - - - - - - - FINISHED JOBS - - - - - - - - - - - - - - - - -
21:55:23 0.98.4 - - - - - - - - - - - - - START JOBS - - - - - - - - - - - - - -
21:55:23 Selected Input file: D:\AutoMKV\incoming.mp4
21:55:23 Selected Output dir: D:\AutoMKV\temp\
21:55:23 Selected Final Name: incoming
21:55:23 Selected Container type: MKV
21:55:23 Selected Encoder: DivX
21:55:23 Selected Size: 1 CD / 1
21:55:23 Selected Profile: 2_Pass_Balanced.xml
21:55:23 Selected Resizer: NONE / Original
21:55:23 Selected Filters: RemoveGrain(mode=2)
21:55:23 Selected Deinterlacer: AUTO
21:55:23 Selected Field Order: AUTO
21:55:23 Track Language 1: NONE
21:55:23 Audio Codec 1: Nero AAC
21:55:23 Track Language 2: NONE
21:55:23 Audio Codec 2: Nero AAC
21:55:23
21:55:23 Extracting audio track 0 NONE with ffmpeg
21:55:24 Unable to determine movie properties , switched to DirectShowSource
21:55:24 Unable to determine movie properties with DirectShowSource, switched to FFVideoSource
21:55:24 Unable to determine movie properties with FFVideoSource. Now analyzing with MediaInfo
21:55:24 Aspect ratio: 16:9
21:55:24 Number of Frames:
21:55:24 Framerate: 25.000
21:55:24 Movie length in Seconds: 1
21:55:24 Movie Width/Height: 1920/1080
21:55:24 Number of Frames:
21:55:24 Framerate: 25.000
21:55:24 Movie length in Seconds: 1
21:55:24 Movie Width/Height: 1920/1080
21:55:24 Number of Frames:
21:55:24 Framerate: 25.000
21:55:24 Movie length in Seconds: 1
21:55:24 Movie Width/Height: 1920/1080
21:55:24 Source is hybrid bff and tff at 0 bff and 0 tff.
21:55:24 Advanced Deinterlace Routines Log
21:55:24 Analyzed 0 sections of five frames
21:55:24 Found Interlace Sections: 0 -1.#J%
21:55:24 Found Progressive Sections:0 -1.#J%
21:55:24 Found Telecined Sections: 0 -1.#J%
21:55:24 Found Zero Mov: -1.#J% 0
21:55:24 Found One Mov: -1.#J% 0
21:55:24 Found Two Mov: -1.#J% 0
21:55:24 Found Three Mov: -1.#J% 0
21:55:24 Found Four Mov: -1.#J% 0
21:55:24 Found Five Mov: -1.#J% 0
21:55:24 First Pass Encoding DivX
21:55:24 Finished 1' Pass DivX: -bvn1f 5866153984 -vbv 4854000,3145728,3145728 -dir "D:\AutoMKV\temp\" -w -b 2 -quantization=2 -profile=3
21:55:24 Finished 2' Pass DivX: -bvnn 5866153984 -vbv 4854000,3145728,3145728 -dir "D:\AutoMKV\temp\" -w -b 2 -quantization=2 -profile=3
21:55:25 BREAK ! FILE NOT SUPPORTED ! LAST TRY WITH FFMPEG!
21:55:25 Switched to FFmpeg for Video Encoding!
21:55:25 Fished FFmpeg Encoding!
21:55:25 d:\AutoMKV\exe\matroska\mkvmerge.exe" -o "D:\AutoMKV\temp\incoming.mkv_pre" --track-name -1:"incoming" --aspect-ratio -1:1.777778 "D:\AutoMKV\temp\movie.avi" --title "Done with AutoMKV 0.98.4 http://forum.doom9.org/showthread.php?t=140178 "
21:55:25 Final Muxed size: -1 bytes
21:55:25 Encoding finished: 00:00:02 elapsed time
21:55:25 -----------------------------------------------------------------------
21:55:25 Script movie.avs
21:55:25
21:55:25 #loadpluginstart
21:55:25
21:55:25 #test1
21:55:25
21:55:25 #importstart
21:55:25
21:55:25 #test2
21:55:25
21:55:25 movie = FFVideoSource("D:\AutoMKV\incoming.mp4",seekmode=0)
21:55:25 movie = isRGB(movie) ? ConvertToYV12(movie) : movie
21:55:25 movie = isYUY2(movie) ? ConvertToYV12(movie) : movie
21:55:25 movie = AssumeFPS(movie,25,1)
21:55:25 function getOrder(clip c) {
21:55:25 order = GetParity(c) ? 1 : 0
21:55:25 Return order }
21:55:25 #filter1start
21:55:25
21:55:25 #test3
21:55:25
21:55:25 last = movie
21:55:25 fixed_aspect = 1.777778
21:55:25 out_width = 1920
21:55:25 #Aspect_Error = 0.000%
21:55:25 out_height = 1080
21:55:25 #resizestart
21:55:25
21:55:25 #test4
21:55:25
21:55:25 #filter2start
21:55:25
21:55:25 #test5
21:55:25
21:55:25 RemoveGrain(mode=2)
21:55:25
21:55:25 - - - - - - - - - - - - FINISHED JOBS - - - - - - - - - - - - - - - - -
21:59:20 0.98.4 - - - - - - - - - - - - - START JOBS - - - - - - - - - - - - - -
21:59:20 Selected Input file: D:\AutoMKV\incoming.mp4
21:59:20 Selected Output dir: D:\AutoMKV\temp\
21:59:20 Selected Final Name: incoming
21:59:20 Selected Container type: MKV
21:59:20 Selected Encoder: X264
21:59:20 Selected Size: 1 CD / 1
21:59:20 Selected Profile: 2_Pass_Balanced.xml
21:59:20 Selected Resizer: NONE / Original
21:59:20 Selected Filters: RemoveGrain(mode=2)
21:59:20 Selected Deinterlacer: AUTO
21:59:20 Selected Field Order: AUTO
21:59:20 Enabled FFMPEG Encoding: mpeg4
21:59:20 Track Language 1: NONE
21:59:20 Audio Codec 1: Lame
21:59:20 Track Language 2: NONE
21:59:20 Audio Codec 2: Nero AAC
21:59:20
21:59:20 Extracting audio track 0 NONE with ffmpeg
21:59:20 Unable to determine movie properties , switched to DirectShowSource
21:59:20 Unable to determine movie properties with DirectShowSource, switched to FFVideoSource
21:59:20 Unable to determine movie properties with FFVideoSource. Now analyzing with MediaInfo
21:59:20 Aspect ratio: 16:9
21:59:20 Number of Frames:
21:59:20 Framerate: 25.000
21:59:20 Movie length in Seconds: 1
21:59:20 Movie Width/Height: 1920/1080
21:59:20 Number of Frames:
21:59:20 Framerate: 25.000
21:59:20 Movie length in Seconds: 1
21:59:20 Movie Width/Height: 1920/1080
21:59:20 Number of Frames:
21:59:20 Framerate: 25.000
21:59:20 Movie length in Seconds: 1
21:59:20 Movie Width/Height: 1920/1080
21:59:21 Source is hybrid bff and tff at 0 bff and 0 tff.
21:59:21 Advanced Deinterlace Routines Log
21:59:21 Analyzed 0 sections of five frames
21:59:21 Found Interlace Sections: 0 -1.#J%
21:59:21 Found Progressive Sections:0 -1.#J%
21:59:21 Found Telecined Sections: 0 -1.#J%
21:59:21 Found Zero Mov: -1.#J% 0
21:59:21 Found One Mov: -1.#J% 0
21:59:21 Found Two Mov: -1.#J% 0
21:59:21 Found Three Mov: -1.#J% 0
21:59:21 Found Four Mov: -1.#J% 0
21:59:21 Found Five Mov: -1.#J% 0
21:59:21 "d:\AutoMKV\exe\BeSweet\ffmpeg.exe" -threads 4 -i "D:\AutoMKV\incoming.mp4" -vcodec mpeg4 -b 5866041856 -s 1920x1080 -an -bf 2 -pass 1 -r 25.000 -y "D:\AutoMKV\temp\movie.avi"
21:59:21 "d:\AutoMKV\exe\BeSweet\ffmpeg.exe" -threads 4 -i "D:\AutoMKV\incoming.mp4" -vcodec mpeg4 -b 5866041856 -s 1920x1080 -bf 2 -pass 2 -r 25.000 -y "D:\AutoMKV\temp\movie.avi"
21:59:21 Encoding finished: 00:00:01 elapsed time
21:59:21 -----------------------------------------------------------------------
21:59:21 Script movie.avs
21:59:21
21:59:21 #loadpluginstart
21:59:21
21:59:21 #test1
21:59:21
21:59:21 #importstart
21:59:21
21:59:21 #test2
21:59:21
21:59:21 movie = FFVideoSource("D:\AutoMKV\incoming.mp4",seekmode=0)
21:59:21 movie = isRGB(movie) ? ConvertToYV12(movie) : movie
21:59:21 movie = isYUY2(movie) ? ConvertToYV12(movie) : movie
21:59:21 movie = AssumeFPS(movie,25,1)
21:59:21 function getOrder(clip c) {
21:59:21 order = GetParity(c) ? 1 : 0
21:59:21 Return order }
21:59:21 #filter1start
21:59:21
21:59:21 #test3
21:59:21
21:59:21 last = movie
21:59:21 fixed_aspect = 1.777778
21:59:21 out_width = 1920
21:59:21 #Aspect_Error = 0.000%
21:59:21 out_height = 1080
21:59:21 #resizestart
21:59:21
21:59:21 #test4
21:59:21
21:59:21 #filter2start
21:59:21
21:59:21 #test5
21:59:21
21:59:21 RemoveGrain(mode=2)
21:59:21
21:59:21 - - - - - - - - - - - - FINISHED JOBS - - - - - - - - - - - - - - - - -
22:02:12 0.98.4 - - - - - - - - - - - - - START JOBS - - - - - - - - - - - - - -
22:02:12 Selected Input file: D:\AutoMKV\incoming.mp4
22:02:12 Selected Output dir: d:\AutoMKV\temp\
22:02:12 Selected Final Name: incoming
22:02:12 Selected Container type: MKV
22:02:12 Selected Encoder: X264
22:02:12 Selected Size: 1 CD / 1
22:02:12 Selected Profile: 2_Pass_Balanced.xml
22:02:12 Selected Resizer: SimpleResize (neutral soft) / Automatic
22:02:12 Selected Filters: RemoveGrain(mode=2)
22:02:12 Selected Deinterlacer: AUTO
22:02:12 Selected Field Order: AUTO
22:02:12 Enabled CRF/CQ AutoRes at 20 value
22:02:12 Track Language 1: Stream #0.1(und): Audio: aac
22:02:12 Audio Codec 1: Nero AAC
22:02:12 Audio Quality 1: 0.35
22:02:12 Audio Channel 1: Stereo
22:02:12 Track Language 2: NONE
22:02:12 Audio Codec 2: Nero AAC
22:02:12 Advanced Audio Settings DUMP Track 1
22:02:12 Nero Option Profiles: AUTO --- Encoding Mode: Quality
22:02:12 CCT Option Profiles: AUTO --- Channel Options: AUTO
22:02:12 Lame Settings: ABR
22:02:12 Audio Normalization: 1
22:02:12 Frequency: AUTO --- Tempo: NONE --- Pitch: NONE --- Other Add:
22:02:12
22:02:12 Extracting audio track 1 Stream #0.1(und): Audio: aac with ffmpeg
22:02:12 Unable to determine movie properties , switched to DirectShowSource
22:02:13 Unable to determine movie properties with DirectShowSource, switched to FFVideoSource
22:02:13 Unable to determine movie properties with FFVideoSource. Now analyzing with MediaInfo
22:02:13 Aspect ratio: 16:9
22:02:13 Number of Frames:
22:02:13 Framerate: 25.000
22:02:13 Movie length in Seconds: 1
22:02:13 Movie Width/Height: 1920/1080
22:02:13 Number of Frames:
22:02:13 Framerate: 25.000
22:02:13 Movie length in Seconds: 1
22:02:13 Movie Width/Height: 1920/1080
22:02:13 Number of Frames:
22:02:13 Framerate: 25.000
22:02:13 Movie length in Seconds: 1
22:02:13 Movie Width/Height: 1920/1080
22:02:13 Source is hybrid bff and tff at 0 bff and 0 tff.
22:02:13 Advanced Deinterlace Routines Log
22:02:13 Analyzed 0 sections of five frames
22:02:13 Found Interlace Sections: 0 -1.#J%
22:02:13 Found Progressive Sections:0 -1.#J%
22:02:13 Found Telecined Sections: 0 -1.#J%
22:02:13 Found Zero Mov: -1.#J% 0
22:02:13 Found One Mov: -1.#J% 0
22:02:13 Found Two Mov: -1.#J% 0
22:02:13 Found Three Mov: -1.#J% 0
22:02:13 Found Four Mov: -1.#J% 0
22:02:13 Found Five Mov: -1.#J% 0
22:02:13 Starting X264 AutoResize with WIDTH of Automatic and wanted size of 734003200 bytes
22:02:13 CRF encoding X264: d:\AutoMKV\exe\encoder\x264.exe --pass 1 --crf 20 --stats "d:\AutoMKV\temp\.stats" --progress --keyint 250 --bframes 3 --qpmin 10 --qpmax 51 --no-psnr --ref 3 --filter -1,-1 --subme 9 --direct auto --vbv-bufsize 14000 --vbv-maxrate 25000 --me umh --no-ssim --level 4.0 --weightb --b-adapt 2 --no-chroma-me --8x8dct --threads auto --thread-input --aud --aq-mode 1 --aq-strength 1 --psy-rd 1.1:1.0 --sar 1:1 --output "d:\AutoMKV\temp\resmovie.mp4" "d:\AutoMKV\temp\resmovie.avs"
22:02:13 Finished Autosize procedure
22:02:13 Tested total movie: 5%
22:02:13 AutoResize movie size: 0 bytes
22:02:13 Movie Width suggested: 0 value based on sample size (0.00% of original width)
22:02:13 Warning !!! - Too low resolution. Set witdh to 640
22:02:13 Starting X264
22:02:13 Command Line 1' Pass X264: d:\AutoMKV\exe\encoder\x264.exe --pass 1 --bitrate 5866154 --stats "d:\AutoMKV\temp\.stats" --ref 1 --progress --keyint 250 --bframes 3 --qpmin 10 --qpmax 51 --no-psnr --filter -1,-1 --subme 2 --direct auto --vbv-bufsize 14000 --vbv-maxrate 25000 --me dia --no-ssim --level 4.0 --b-adapt 2 --no-chroma-me --partitions none --threads auto --thread-input --aud --aq-mode 1 --aq-strength 1 --psy-rd 1.1:1.0 --sar 1:1 --output NUL "d:\AutoMKV\temp\movie.avs"
22:02:13 Command Line 2' Pass X264: d:\AutoMKV\exe\encoder\x264.exe --pass 2 --bitrate 5866154 --stats "d:\AutoMKV\temp\.stats" --progress --keyint 250 --bframes 3 --qpmin 10 --qpmax 51 --no-psnr --ref 3 --filter -1,-1 --subme 9 --direct auto --vbv-bufsize 14000 --vbv-maxrate 25000 --me umh --no-ssim --level 4.0 --weightb --b-adapt 2 --no-chroma-me --8x8dct --threads auto --thread-input --aud --aq-mode 1 --aq-strength 1 --psy-rd 1.1:1.0 --sar 1:1 --output "d:\AutoMKV\temp\movie.264" "d:\AutoMKV\temp\movie.avs"
22:02:13 Finished 1' Pass X264
22:02:13 Only Movie Size: 0 bytes
22:02:14 BREAK ! FILE NOT SUPPORTED ! LAST TRY WITH FFMPEG!
22:02:14 Switched to FFmpeg for Video Encoding!
22:02:14 FFmpeg.exe String: "d:\AutoMKV\exe\BeSweet\ffmpeg.exe" -an -pass 1 -r 25.000 -threads 4 -i "D:\AutoMKV\incoming.mp4" -vcodec libx264 -bf 3 -b 5866153984 -s 1680x944 -an -deblockalpha -1 -deblockbeta -1 -directpred 2 -refs 3 -subq 8 -mixed_refs -dct8x8 -o -y "d:\AutoMKV\temp\movie.mp4"
22:02:14 FFmpeg.exe String: "d:\AutoMKV\exe\BeSweet\ffmpeg.exe" -an -pass 2 -r 25.000 -threads 4 -i "D:\AutoMKV\incoming.mp4" -vcodec libx264 -bf 3 -b 5866153984 -s 1680x944 -an -deblockalpha -1 -deblockbeta -1 -directpred 2 -refs 3 -subq 8 -mixed_refs -dct8x8 -o -y "d:\AutoMKV\temp\movie.mp4"
22:02:14 Fished FFmpeg Encoding!
22:02:14 "d:\AutoMKV\exe\matroska\mkvmerge.exe" -o "d:\AutoMKV\temp\incoming.mkv" --default-duration 0:25000/1000fps --track-name -1:"incoming" --aspect-ratio -1:1.000000 "d:\AutoMKV\temp\movie.264" --language -1:und --default-track -1:yes "d:\AutoMKV\temp\" --title "Done with AutoMKV 0.98.4 http://forum.doom9.org/showthread.php?t=140178 "
22:02:14 Final Muxed size: -1 bytes
22:02:14 Encoding finished: 00:00:01 elapsed time
22:02:14 -----------------------------------------------------------------------
22:02:14 Script Resmovie.avs
22:02:14
22:02:14 #loadpluginstart
22:02:14
22:02:14 #test1
22:02:14
22:02:14 #importstart
22:02:14
22:02:14 #test2
22:02:14
22:02:14 movie = FFVideoSource("D:\AutoMKV\incoming.mp4",seekmode=0)
22:02:14 movie = isRGB(movie) ? ConvertToYV12(movie) : movie
22:02:14 movie = isYUY2(movie) ? ConvertToYV12(movie) : movie
22:02:14 movie = AssumeFPS(movie,25,1)
22:02:14 function getOrder(clip c) {
22:02:14 order = GetParity(c) ? 1 : 0
22:02:14 Return order }
22:02:14 #filter1start
22:02:14
22:02:14 #test3
22:02:14
22:02:14 last=movie
22:02:14 fixed_aspect = 1.000000
22:02:14 out_width = -16
22:02:14 #Aspect_Error = -50.000%
22:02:14 out_height = -8
22:02:14 #resizestart
22:02:14
22:02:14 #test4
22:02:14
22:02:14 SimpleResize(out_width,out_height)
22:02:14 #filter2start
22:02:14
22:02:14 #test5
22:02:14
22:02:14 RemoveGrain(mode=2)
22:02:14 function Comptest(clip c, float percent)
22:02:14 {
22:02:14 frange=floor(14./(percent/100.))
22:02:14 Return SelectRangeEvery(c, frange, 14)
22:02:14 }
22:02:14 Comptest(last,5)
22:02:14 -----------------------------------------------------------------------
22:02:14 Script movie.avs
22:02:14
22:02:14 #loadpluginstart
22:02:14
22:02:14 #test1
22:02:14
22:02:14 #importstart
22:02:14
22:02:14 #test2
22:02:14
22:02:14 movie = FFVideoSource("D:\AutoMKV\incoming.mp4",seekmode=0)
22:02:14 movie = isRGB(movie) ? ConvertToYV12(movie) : movie
22:02:14 movie = isYUY2(movie) ? ConvertToYV12(movie) : movie
22:02:14 movie = AssumeFPS(movie,25,1)
22:02:14 function getOrder(clip c) {
22:02:14 order = GetParity(c) ? 1 : 0
22:02:14 Return order }
22:02:14 #filter1start
22:02:14
22:02:14 #test3
22:02:14
22:02:14 last=movie
22:02:14 fixed_aspect = 1.000000
22:02:14 out_width = 640
22:02:14 out_height = 640
22:02:14 #resizestart
22:02:14
22:02:14 #test4
22:02:14
22:02:14 SimpleResize(out_width,out_height)
22:02:14 #filter2start
22:02:14
22:02:14 #test5
22:02:14
22:02:14 RemoveGrain(mode=2)
22:02:14
22:02:14 - - - - - - - - - - - - FINISHED JOBS - - - - - - - - - - - - - - - - -
22:09:17 0.98.4 - - - - - - - - - - - - - START JOBS - - - - - - - - - - - - - -
22:09:17 Selected Input file: D:\AutoMKV\incoming.mp4
22:09:17 Selected Output dir: d:\AutoMKV\temp\
22:09:17 Selected Final Name: incoming
22:09:17 Selected Container type: MKV
22:09:17 Selected Encoder: X264
22:09:17 Selected Size: 1 CD / 1
22:09:17 Selected Profile: 2_Pass_Balanced.xml
22:09:17 Selected Resizer: SimpleResize (neutral soft) / Automatic
22:09:17 Selected Filters: RemoveGrain(mode=2)
22:09:17 Selected Deinterlacer: AUTO
22:09:17 Selected Field Order: AUTO
22:09:17 Enabled CRF/CQ AutoRes at 20 value
22:09:17 Track Language 1: Stream #0.1(und): Audio: aac
22:09:17 Audio Codec 1: Nero AAC
22:09:17 Audio Quality 1: 0.35
22:09:17 Audio Channel 1: Stereo
22:09:17 Track Language 2: NONE
22:09:17 Audio Codec 2: Nero AAC
22:09:17 Advanced Audio Settings DUMP Track 1
22:09:17 Nero Option Profiles: AUTO --- Encoding Mode: Quality
22:09:17 CCT Option Profiles: AUTO --- Channel Options: AUTO
22:09:17 Lame Settings: ABR
22:09:17 Audio Normalization: 1
22:09:17 Frequency: AUTO --- Tempo: NONE --- Pitch: NONE --- Other Add:
22:09:17
22:09:17 Extracting audio track 1 Stream #0.1(und): Audio: aac with ffmpeg
22:09:17 Unable to determine movie properties , switched to DirectShowSource
22:09:28 Number of Frames: 22836
22:09:28 Framerate: 25.000000
22:09:28 Movie length in Seconds: 914
22:09:28 Movie Width/Height: 1920/1080
22:09:28 Number of Frames: 22836
22:09:28 Framerate: 25.000000
22:09:28 Movie length in Seconds: 914
22:09:28 Movie Width/Height: 1920/1080
23:42:30 Source is declared bff by a margin of 14/4.
23:42:30 Advanced Deinterlace Routines Log
23:42:30 Analyzed 33 sections of five frames
23:42:30 Found Interlace Sections: 0 0.00%
23:42:30 Found Progressive Sections:33 100.00%
23:42:30 Found Telecined Sections: 0 0.00%
23:42:30 Found Zero Mov: 100.00% 33
23:42:30 Found One Mov: 0.00% 0
23:42:30 Found Two Mov: 0.00% 0
23:42:30 Found Three Mov: 0.00% 0
23:42:30 Found Four Mov: 0.00% 0
23:42:30 Found Five Mov: 0.00% 0
23:42:30 The Movie is declared to progressive
23:42:30 Starting X264 AutoResize with WIDTH of Automatic and wanted size of 734003200 bytes
23:42:30 CRF encoding X264: d:\AutoMKV\exe\encoder\x264.exe --pass 1 --crf 20 --stats "d:\AutoMKV\temp\.stats" --progress --keyint 250 --bframes 3 --qpmin 10 --qpmax 51 --no-psnr --ref 3 --filter -1,-1 --subme 9 --direct auto --vbv-bufsize 14000 --vbv-maxrate 25000 --me umh --no-ssim --level 4.0 --weightb --b-adapt 2 --no-chroma-me --8x8dct --threads auto --thread-input --aud --aq-mode 1 --aq-strength 1 --psy-rd 1.1:1.0 --sar 1:1 --output "d:\AutoMKV\temp\resmovie.mp4" "d:\AutoMKV\temp\resmovie.avs"
23:45:17 Finished Autosize procedure
23:45:17 Tested total movie: 5%
23:45:17 AutoResize movie size: 44780104 bytes
23:45:17 Movie Width suggested: 2448 value based on sample size (127.50% of original width)
23:45:17 Starting X264
23:45:17 Command Line 1' Pass X264: d:\AutoMKV\exe\encoder\x264.exe --pass 1 --bitrate 6413 --stats "d:\AutoMKV\temp\.stats" --ref 1 --progress --keyint 250 --bframes 3 --qpmin 10 --qpmax 51 --no-psnr --filter -1,-1 --subme 2 --direct auto --vbv-bufsize 14000 --vbv-maxrate 25000 --me dia --no-ssim --level 4.0 --b-adapt 2 --no-chroma-me --partitions none --threads auto --thread-input --aud --aq-mode 1 --aq-strength 1 --psy-rd 1.1:1.0 --sar 1:1 --output NUL "d:\AutoMKV\temp\movie.avs"
23:45:17 Command Line 2' Pass X264: d:\AutoMKV\exe\encoder\x264.exe --pass 2 --bitrate 6413 --stats "d:\AutoMKV\temp\.stats" --progress --keyint 250 --bframes 3 --qpmin 10 --qpmax 51 --no-psnr --ref 3 --filter -1,-1 --subme 9 --direct auto --vbv-bufsize 14000 --vbv-maxrate 25000 --me umh --no-ssim --level 4.0 --weightb --b-adapt 2 --no-chroma-me --8x8dct --threads auto --thread-input --aud --aq-mode 1 --aq-strength 1 --psy-rd 1.1:1.0 --sar 1:1 --output "d:\AutoMKV\temp\movie.264" "d:\AutoMKV\temp\movie.avs"
00:15:35 Finished 1' Pass X264
00:54:49 Only Movie Size: 732194752 bytes
00:54:49 "d:\AutoMKV\exe\matroska\mkvmerge.exe" -o "d:\AutoMKV\temp\incoming.mkv" --default-duration 0:25000/1000fps --track-name -1:"incoming" --aspect-ratio -1:1.776119 "d:\AutoMKV\temp\movie.264" --language -1:und --default-track -1:yes "d:\AutoMKV\temp\" --title "Done with AutoMKV 0.98.4 http://forum.doom9.org/showthread.php?t=140178 "
00:54:49 Final Muxed size: -1 bytes
00:54:49 Encoding finished: 00:39:14 elapsed time
00:54:49 -----------------------------------------------------------------------
00:54:49 Script AutoCrop.log
00:54:49
00:54:49 Crop(0,0,1920,1080)
00:54:49 -----------------------------------------------------------------------
00:54:49 Script Resmovie.avs
00:54:49
00:54:50 #loadpluginstart
00:54:50
00:54:50 #test1
00:54:50
00:54:50 #importstart
00:54:50
00:54:50 #test2
00:54:50
00:54:50 movie = directshowsource("D:\AutoMKV\incoming.mp4",fps=25.000000,convertfps=true,audio=false)
00:54:50 movie = isRGB(movie) ? ConvertToYV12(movie,interlaced=true) : movie
00:54:50 movie = isYUY2(movie) ? ConvertToYV12(movie,interlaced=true) : movie
00:54:50 function getOrder(clip c) {
00:54:50 order = GetParity(c) ? 1 : 0
00:54:50 Return order }
00:54:50 #filter1start
00:54:50
00:54:50 #test3
00:54:50
00:54:50 last=movie.Crop(0,0,1920,1080)
00:54:50 fixed_aspect = 1.777778
00:54:50 out_width = 1904
00:54:50 #Aspect_Error = 0.093%
00:54:50 out_height = 1072
00:54:50 #resizestart
00:54:50
00:54:50 #test4
00:54:50
00:54:50 SimpleResize(out_width,out_height)
00:54:50 #filter2start
00:54:50
00:54:50 #test5
00:54:50
00:54:50 RemoveGrain(mode=2)
00:54:50 function Comptest(clip c, float percent)
00:54:50 {
00:54:50 frange=floor(14./(percent/100.))
00:54:50 Return SelectRangeEvery(c, frange, 14)
00:54:50 }
00:54:50 Comptest(last,5)
00:54:50 -----------------------------------------------------------------------
00:54:50 Script movie.avs
00:54:50
00:54:50 #loadpluginstart
00:54:50
00:54:50 #test1
00:54:50
00:54:50 #importstart
00:54:50
00:54:50 #test2
00:54:50
00:54:50 movie = directshowsource("D:\AutoMKV\incoming.mp4",fps=25.000000,convertfps=true,audio=false)
00:54:50 movie = isRGB(movie) ? ConvertToYV12(movie,interlaced=true) : movie
00:54:50 movie = isYUY2(movie) ? ConvertToYV12(movie,interlaced=true) : movie
00:54:50 function getOrder(clip c) {
00:54:50 order = GetParity(c) ? 1 : 0
00:54:50 Return order }
00:54:50 #filter1start
00:54:50
00:54:50 #test3
00:54:50
00:54:50 last=movie.Crop(0,0,1920,1080)
00:54:50 fixed_aspect = 1.777778
00:54:50 out_width = 1904
00:54:50 #Aspect_Error = 0.093%
00:54:50 out_height = 1072
00:54:50 #resizestart
00:54:50
00:54:50 #test4
00:54:50
00:54:50 SimpleResize(out_width,out_height)
00:54:50 #filter2start
00:54:50
00:54:50 #test5
00:54:50
00:54:50 RemoveGrain(mode=2)
00:54:50
00:54:50 - - - - - - - - - - - - FINISHED JOBS - - - - - - - - - - - - - - - - -
[Профиль]  [ЛС] 

geran2009

Стаж: 9 лет 7 месяцев

Сообщений: 102

geran2009 · 12-Авг-13 13:36 (спустя 7 месяцев)

[Цитировать] 

У меня файл исходный ххх.mpeg, захват со спутника, потом сконвертированный для обычного просмотра.
Не хочет его енкодить! вылетает после индексации. файл кажется называется ffMPEG
[Профиль]  [ЛС] 

megatron1973

Стаж: 10 лет 1 месяц

Сообщений: 1754

megatron1973 · 09-Сен-13 14:41 (спустя 28 дней)

[Цитировать] 

AutoMKV отличная вешь спасибо
[Профиль]  [ЛС] 

[email protected]

Стаж: 7 лет 7 месяцев

Сообщений: 3


[email protected] · 28-Ноя-13 16:52 (спустя 2 месяца 19 дней)

[Цитировать] 

Попробовал скодировать по инструкции два раза - на выходе получился только лог-файл со всей информацией, а в папке, которую указывал в output - только временные файлы общим размером на 600 кб... в общем с этой прогой все не так просто, как кажется...
[Профиль]  [ЛС] 

Baz74

Стаж: 8 лет 11 месяцев

Сообщений: 211


Baz74 · 07-Мар-14 05:08 (спустя 3 месяца 8 дней)

[Цитировать] 

[email protected] писал(а):
61904660Попробовал скодировать по инструкции два раза - на выходе получился только лог-файл со всей информацией, а в папке, которую указывал в output - только временные файлы общим размером на 600 кб... в общем с этой прогой все не так просто, как кажется...
Такая же фигня. Судя по дате предыдущего сообщения, никто помочь не может?
[Профиль]  [ЛС] 

Miyu Kizuna

Стаж: 9 лет 4 месяца

Сообщений: 75

Miyu Kizuna · 07-Мар-14 22:12 (спустя 17 часов)

[Цитировать] 

Baz74 писал(а):
63197473
[email protected] писал(а):
61904660Попробовал скодировать по инструкции два раза - на выходе получился только лог-файл со всей информацией, а в папке, которую указывал в output - только временные файлы общим размером на 600 кб... в общем с этой прогой все не так просто, как кажется...
Такая же фигня. Судя по дате предыдущего сообщения, никто помочь не может?
У меня была "такая же фигня", разрешилось все следующим образом:
1. сначала установила AutoGK - установка всех компонентов, которые предлагает пакет
2. затем установила AutoMKV
Эта проблема с лог-файлом повторялась каждый раз при переустановке ОС - AutoMKV отказывался работать без предустановленного AutoGK. Тогда у меня был WinXP, теперь Win7, и на ней использовать AutoMKV еще не пробовала.
Попробуйте "поколдовать" с последовательной установкой AutoGK, а затем AutoMKV - может сработает.
[Профиль]  [ЛС] 

GlukSky

Стаж: 9 лет 8 месяцев

Сообщений: 19


GlukSky · 14-Апр-14 12:05 (спустя 1 месяц 6 дней)

[Цитировать] 

В принципе вполне подходящая программа, если надо сделать что то по быстрому.
Правда у меня не хочет звук пережимать(как бы виснит, но на кнопки реагирует), если ставить "копировать с оригинала", то все в порядке.
[Профиль]  [ЛС] 

Юрий Гаврилович

Стаж: 10 лет 6 месяцев

Сообщений: 24

Юрий Гаврилович · 18-Апр-14 08:35 (спустя 3 дня)

[Цитировать] 

А никто не встречал конвертер использующий ресурсы видеокарты при конвертации? Использовать центральный процессор для обработки уж крайне не продуктивно.
[Профиль]  [ЛС] 

W-Pepper

Стаж: 10 лет 7 месяцев

Сообщений: 166

W-Pepper · 21-Апр-14 19:22 (спустя 3 дня, ред. 03-Май-14 11:52)

[Цитировать] 

Юрий Гаврилович
http://www.movavi.ru/videoconverter!original/
Только качество выходное для H.264 мне не понравилось, но видяху юзает по полной.
[Профиль]  [ЛС] 

Юрий Гаврилович

Стаж: 10 лет 6 месяцев

Сообщений: 24

Юрий Гаврилович · 25-Апр-14 22:08 (спустя 4 дня)

[Цитировать] 

W-Pepper
спасибо, жаль что с ati'шными видюхами не дружит, у них больше математических блоков.
[Профиль]  [ЛС] 

W-Pepper

Стаж: 10 лет 7 месяцев

Сообщений: 166

W-Pepper · 28-Апр-14 14:16 (спустя 2 дня 16 часов)

[Цитировать] 

Юрий Гаврилович
Ну это не особая проблема, вот еще список:
ArcSoft Media Converter
Badaboom Media Converter
CyberLink MediaEspresso
GOM Video Converter

Но во всех случаях качество сильно хромает.
[Профиль]  [ЛС] 

mahnovets

Стаж: 9 лет 5 месяцев

Сообщений: 37

mahnovets · 05-Май-14 07:28 (спустя 6 дней)

[Цитировать] 

короче всё это дерьмо!кроме темпа ничего нет,программа должна быть цельной,без установок дополнительного мусора!
[Профиль]  [ЛС] 

Трупаед

Стаж: 8 лет 11 месяцев

Сообщений: 75


Трупаед · 31-Окт-15 23:48 (спустя 1 год 5 месяцев)

[Цитировать] 

Что-то или я туплю, или тут нет функции разбивки по главам... ситуация какая, есть сериал на нескольких DVD, хотел его переконвертить в MKV, но при этом разбить на отдельные серии...
[Профиль]  [ЛС] 

Ванек20090808

Стаж: 9 лет 3 месяца

Сообщений: 809

Ванек20090808 · 07-Июл-16 18:33 (спустя 8 месяцев)

[Цитировать] 

Народ помогите плиз, конвертировал фильм, на ноуте смотриться нормально соотношение сторон, а на телеке Samsung изображение не на полный экран и растянуто, что надо нажать в этой проге чтобы все было нормально? возможно ли это? или подскажите ещё прогу которая из Dvd конвертирует в Mkv с минимальными потерями?)
[Профиль]  [ЛС] 
 
Ответить
Loading...
Error