(Cool, West Coast Jazz) Gerry Mulligan - Night Lights (1963 & 1965) {Mercury 818 271-2, West Germany} - 1984, APE (image+.cue) lossless

Страницы:  1

Ответить
Автор
Сообщение

Darkman

Top Seed 05* 640r

Стаж: 10 лет 11 месяцев

Сообщений: 10205

Darkman · 22-Окт-11 17:41 (7 лет 9 месяцев назад, ред. 22-Окт-11 17:56)

Gerry Mulligan - Night Lights
Жанр: Cool, West Coast Jazz
Страна-производитель диска: West Germany
Год издания диска: 1984
Издатель (лейбл): Mercury
Номер по каталогу: 818 271-2
Аудио кодек: APE (*.ape)
Тип рипа: image+.cue
Битрейт аудио: lossless
Продолжительность: 00:34:07
Источник (релизер): barin99
Наличие сканов в содержимом раздачи: да
Треклист:
1. Night Lights [1963 Version] 4:55
2. Morning of the Carnival (Manha de Carnaval) 5:29
3. In the Wee Small Hours of the Morning 5:37
4. Prelude in E minor 4:14
5. Festival Minor 6:48
6. Tell Me When 4:09
7. Night Lights [1965 Version] 2:53 ***
*** - additional track on compact disc only
Personnel:
Gerry Mulligan — Clarinet, Sax (Baritone), Piano
Bob Brookmeyer — Trombone (1-6)
Art Farmer — Flugelhorn, Trumpet (1-6)
Jim Hall — Guitar (1-6)
Jon Gray — Guitar (7)
Pete Jolly — Piano (7)
Bill Crow — Bass (1-6)
Jimmy Bond — Bass (7)
Dave Bailey — Drums (1-6)
Hal Blaine — Drums (7)
Gerry Mulligan Sextet (Tracks 1-6, recorded September 1963 at Nola Penthouse Studios, N.Y.C.)
Gerry Mulligan Quintet (Track 7, recorded 1965)
БИОГРАФИЯ и альбомы Gerry Mulligan'a
Лог создания рипа (EAC Log)
Exact Audio Copy V1.0 beta 1 from 15. November 2010
EAC extraction logfile from 15. October 2011, 18:32
Gerry Mulligan / Night Lights
Used drive : TSSTcorpDVD+-RW TS-L532B Adapter: 1 ID: 0
Read mode : Secure
Utilize accurate stream : Yes
Defeat audio cache : Yes
Make use of C2 pointers : No
Read offset correction : 704
Overread into Lead-In and Lead-Out : No
Fill up missing offset samples with silence : Yes
Delete leading and trailing silent blocks : No
Null samples used in CRC calculations : Yes
Used interface : Native Win32 interface for Win NT & 2000
Used output format : Internal WAV Routines
Sample format : 44.100 Hz; 16 Bit; Stereo
TOC of the extracted CD
Track | Start | Length | Start sector | End sector
---------------------------------------------------------
1 | 0:00.33 | 4:55.25 | 33 | 22182
2 | 4:55.58 | 5:29.50 | 22183 | 46907
3 | 10:25.33 | 5:37.37 | 46908 | 72219
4 | 16:02.70 | 4:14.38 | 72220 | 91307
5 | 20:17.33 | 6:48.12 | 91308 | 121919
6 | 27:05.45 | 4:09.25 | 121920 | 140619
7 | 31:14.70 | 2:53.38 | 140620 | 153632
Range status and errors
Selected range
Filename C:\Documents and Settings\VB\My Documents\BARIN99\Gerry Mulligan - Night Lights\Gerry Mulligan - Night Lights.wav
Peak level 97.7 %
Extraction speed 0.2 X
Range quality 100.0 %
Copy CRC CAEE9BC8
Copy OK
No errors occurred
AccurateRip summary
Track 1 accurately ripped (confidence 3) [1F4C5143]
Track 2 accurately ripped (confidence 3) [FCA4482A]
Track 3 accurately ripped (confidence 2) [9A617ACF]
Track 4 accurately ripped (confidence 3) [FD32D2F9]
Track 5 accurately ripped (confidence 2) [DAE9D224]
Track 6 accurately ripped (confidence 2) [BDDF9043]
Track 7 accurately ripped (confidence 2) [5B709BF3]
All tracks accurately ripped
End of status report
Содержание индексной карты (.CUE)
REM GENRE Jazz
REM DATE 1965
REM DISCID 69080007
REM COMMENT "ExactAudioCopy v1.0b1"
PERFORMER "Gerry Mulligan"
TITLE "Night Lights"
FILE "Gerry Mulligan - Night Lights.ape" WAVE
TRACK 01 AUDIO
TITLE "Night Lights (1963 version)"
PERFORMER "Gerry Mulligan"
INDEX 00 00:00:00
INDEX 01 00:00:33
TRACK 02 AUDIO
TITLE "Morning Of The Carnival from Black Orpheus"
PERFORMER "Gerry Mulligan"
INDEX 00 04:53:51
INDEX 01 04:55:58
TRACK 03 AUDIO
TITLE "In The Wee Small Hours Of The Morning"
PERFORMER "Gerry Mulligan"
INDEX 00 10:23:07
INDEX 01 10:25:33
TRACK 04 AUDIO
TITLE "Prelude In E Minor"
PERFORMER "Gerry Mulligan"
INDEX 00 16:00:26
INDEX 01 16:02:70
TRACK 05 AUDIO
TITLE "Festival Minor"
PERFORMER "Gerry Mulligan"
INDEX 00 20:14:50
INDEX 01 20:17:33
TRACK 06 AUDIO
TITLE "Tell Me When"
PERFORMER "Gerry Mulligan"
INDEX 00 27:02:64
INDEX 01 27:05:45
TRACK 07 AUDIO
TITLE "Night Lights (1965 version)"
PERFORMER "Gerry Mulligan"
INDEX 00 31:12:03
INDEX 01 31:14:70
Об исполнителе
Jazz people look for beauty and offer love. Listen to the Cinderella songs they prefer. My Funny Valentine, for example: hidden for years and barely nourished by the gentility, this perfect maid, this dream of a cook, was first rescued and introduced around by Gerry Mulligan. We knew she was pretty, but Gerry saw her soul. The early Mulligan Quartet's Valentine is mother of the six performances here. Morning of the Carnival, from Brazil; Prelude in E Minor, from Poland, in Brazilian dress. In the Wee Small Hours, from the solitary side of the swinging Sinatra; Tell Me When, from the honey pocket of the salty Ben Webster. And Gerry's own two originals: Festive Minor, the last set at the club; and Night Lights (Gerry playing piano), back home. Each from a different seed; all related. Whatever they were, now they are songs of love.Musicians know of rooms around the world where lights are low, and tables too. They find them when the gig is through, to talk and drink and smile. The sandy :ounds of dancing feet are loudest in the room. You know the scene.Remember, once, a room so dark the street outside the window glared by contrast? Doors were locked, the air was sweet, the cigarette was shared. And maybe there was Thornhill's Snowfall, Dusk, by lington, Our Waltz, by David Rose, or Moonlight Serenade.The bands are not the same. The songs are new. But nothing's really changed.
--Willis Conover
Back
AMG
"This is a rather relaxed recording featuring baritonist Gerry Mulligan and some of his top alumni (trumpeter Art Farmer, trombonist Bob Brookmeyer, guitarist Jim Hall, bassist Bill Crow, and drummer Dave Bailey) exploring three of his own songs (including 'Festive Minor'), Chopin's Prelude in E minor, 'In the Wee Small Hours of the Morning,' and 'Morning of the Carnival' (from Black Orpheus). The emphasis is on ballads and nothing too innovative occurs, but the results are pleasing and laid-back."
Download
Для скачивания .torrent файлов необходима регистрация
Сайт не распространяет и не хранит электронные версии произведений, а лишь предоставляет доступ к создаваемому пользователями каталогу ссылок на торрент-файлы, которые содержат только списки хеш-сумм
[Профиль]  [ЛС] 

Darkman

Top Seed 05* 640r

Стаж: 10 лет 11 месяцев

Сообщений: 10205

Darkman · 22-Окт-11 17:53 (спустя 11 мин.)

... на замену # сомнительному релизу (со статусом "V проверено") ... там нету КУЯ ...
... этот альбом японского издания ... ТУТ - https://rutracker.org/forum/viewtopic.php?t=958079
... этот альбом LP Rip ... ТУТ - https://rutracker.org/forum/viewtopic.php?t=2327521
[Профиль]  [ЛС] 

Skovorodkin1985

Стаж: 9 лет 2 месяца

Сообщений: 429


Skovorodkin1985 · 23-Июн-19 13:21 (спустя 7 лет 8 месяцев)

Есть кайфовые моменты, спасибо.
[Профиль]  [ЛС] 
 
Ответить
Loading...
Error